<?xml version="1.0" standalone="no"?>
<!DOCTYPE svg PUBLIC "-//W3C//DTD SVG 1.1//EN" "http://www.w3.org/Graphics/SVG/1.1/DTD/svg11.dtd" >
<svg xmlns="http://www.w3.org/2000/svg">
<metadata>Generated by IcoMoon</metadata>
<defs>
<font id="splms" horiz-adv-x="1024">
<font-face units-per-em="1024" ascent="839.8201368523949" descent="-184.1798631476051" />
<missing-glyph horiz-adv-x="1024" />
<glyph unicode="&#x20;" horiz-adv-x="512.5004887585533" d="" />
<glyph unicode="&#xe600;" glyph-name="add" d="M1022.567 359.774c-1.22 16.473-3.667 34.16-7.932 53.081h-401.766v401.766c-18.919 4.271-36.003 6.718-51.256 7.938-14.643 1.824-29.896 2.434-45.149 2.434-17.693 0-34.771-0.611-51.25-2.434-16.473-1.22-34.16-3.667-53.081-7.938v-401.766h-401.76c-4.271-18.919-7.321-35.997-8.541-51.25s-1.831-29.896-1.831-45.149c0-17.693 0.611-34.771 1.831-51.25 1.22-16.473 4.271-34.173 8.541-53.087h401.766v-401.766c18.919-4.277 35.997-7.321 51.25-8.541 15.253-1.214 29.896-1.824 45.149-1.824 17.693 0 34.771 0.611 51.25 1.824 16.473 1.22 34.173 4.265 53.087 8.541v401.766h401.766c4.265 18.919 6.706 36.003 7.926 51.256 1.831 14.643 2.44 29.896 2.44 45.149 0 17.699-0.611 34.777-2.44 51.25z" />
<glyph unicode="&#xe601;" glyph-name="address-book" horiz-adv-x="888" d="M729.627 821.968c-9.159 1.933-18.715 2.616-28.098 2.616-183.903 0.17-367.805 0.116-551.708 0.116h-16.64v-1023.863h13.823c186.264 0 372.555 0 558.819 0.027 3.781 0 7.592 0 11.377 0.254 33.218 2.106 52.929 22.042 54.549 55.232 0.285 5.66 0.339 11.347 0.339 17.038 0.027 292.92 0.027 585.864 0 878.784 0 7.11 0.058 14.221-0.514 21.304-2.076 25.853-16.805 43.229-41.949 48.492zM290.007 163.604v8.619c0.285 0.37 0.795 0.741 0.826 1.138 2.245 21.871 15.016 34.101 35.324 40.869 20.051 6.713 39.677 14.703 59.299 22.612 18.002 7.28 27.504 21.131 29.834 40.328 1.053 8.619-2.844 15.216-7.736 21.532-26.679 34.302-30.915 73.206-21.046 113.821 7.736 31.767 36.092 50.683 69.284 49.345 32.709-1.308 58.392-22.469 65.048-54.21 5.972-28.5 3.414-56.513-7.195-83.562-3.071-7.852-7.623-15.444-12.856-22.072-15.359-19.314-12.77-44.367 8.079-58.303 9.954-6.655 21.671-10.753 32.851-15.328 13.851-5.687 28.071-10.436 41.98-16.042 23.295-9.414 31.455-22.042 31.571-48.747h-325.263zM72.018 824.989c-52.5-0.039-71.76-19.31-72.014-72.049-0.004-0.949 0-1.894 0-2.844 0-291.435-0.023-582.873 0.104-874.309 0.004-9.896 0.853-19.907 2.515-29.661 3.885-22.809 16.953-38.431 40.112-42.030 18.963-2.948 38.404-2.809 58.677-4.105 0 343.422 0 683.816 0 1025.001-10.54-0.004-19.965 0.004-29.395-0.004zM887.789 638.305v-141.977c0-18.904-15.432-34.337-34.337-34.337h-47.454v210.651h47.454c18.904 0.004 34.337-15.432 34.337-34.337zM887.789 366.701v-142.363c0-18.904-15.432-33.951-34.337-33.951h-47.454v210.265h47.454c18.904 0 34.337-15.436 34.337-33.951zM887.789 94.321v-141.977c0-18.908-15.432-34.337-34.337-34.337h-47.454v210.651h47.454c18.904-0.004 34.337-15.432 34.337-34.337z" />
<glyph unicode="&#xe602;" glyph-name="agriculture" horiz-adv-x="988" d="M100.1 328.86c34.063-53.24 85.518-73.67 145.745-82.138 24.076-3.379 48.569-14.924 69.227-28.329 21.228-13.746 28.367-37.784 18.835-62.809-9.569-25.139-29.848-34.974-56.126-34.252-32.202 0.874-58.48 16.177-78.227 38.999-25.291 29.279-46.48 62.126-69.379 93.492-4.215 5.81-8.051 11.886-12.076 17.81-6 19.063-12 38.126-18 57.227zM150.947 167.545c31.671-54.189 81.948-75.455 141.53-84.075 24.342-3.531 49.025-13.632 70.405-26.088 24.645-14.354 31.936-43.252 22.898-66.493-9.152-23.544-33.456-39.987-61.898-32.392-25.215 6.722-52.404 18.759-70.48 36.721-27.266 27.037-47.43 61.291-70.518 92.543-4.215 5.697-8.164 11.582-12.228 17.354-6.607 20.81-13.177 41.62-19.708 62.43zM0 646.249c32.43-53.505 82.784-74.506 142.29-82.746 23.506-3.266 47.278-13.177 68.011-25.101 25.708-14.809 33.607-44.392 23.62-68.468-9.683-23.43-34.974-40.557-62.392-31.253-28.86 9.798-59.088 25.443-79.784 47.088-28.86 30.266-49.518 68.43-73.67 103.252-6.038 19.063-12.038 38.164-18.076 57.227zM49.215 490.136c33.227-54.189 84.797-74.392 145.024-82.746 23.316-3.228 47.012-13.746 67.253-26.316 24.607-15.266 31.101-43.442 21.493-66.683-9.836-23.848-34.329-40.595-62.012-31.253-28.86 9.683-59.164 25.139-79.822 46.671-28.974 30.189-49.632 68.354-73.86 103.1-6.038 19.101-12.038 38.164-18.076 57.227zM149.618 824.993c31.138-42.075 63.417-83.391 92.809-126.644 10.899-16.025 16.86-36.113 21.797-55.215 7.291-28.177-2.81-48.227-25.936-58.67-27.873-12.569-57.569-8.962-69.113 16.632-14.203 31.405-24.266 66.341-27.569 100.594-3.874 40.063 1.443 81.037 2.81 121.632 1.709 0.57 3.455 1.101 5.202 1.671zM420.641 598.173c18.797-76.329 30.037-150.758 0-224.352-7.329-17.962-23.81-34.025-39.721-46.215-16.746-12.836-40.519-14.127-55.291 1.785-12.228 13.177-26.165 36.38-22.215 50.354 7.67 27.342 25.784 52.328 42.379 76.405 17.316 25.139 41.012 46.252 55.974 72.531 10.975 19.291 12.417 44.088 18.873 69.493zM372.338 750.716c16.937-63.759 25.936-129.34 8.24-194.77-6.493-23.999-22.063-47.581-39.189-66.076-16.86-18.19-42-21.19-64.898-6.076-23.658 15.645-31.519 39.835-20.961 64.253 10.139 23.468 26.886 44.354 42.493 65.088 15.721 20.885 37.252 38.164 49.442 60.683 12.455 22.974 16.708 50.43 24.873 76.898zM797.079-11.769c-32.050-45.873-68.202-86.315-123.834-99.796-9.95-2.43-23.506-1.557-31.519 3.874-10.025 6.798-19.595 18.759-22.974 30.531-4.253 14.924 4.367 31.063 18.531 35.468 19.291 6.038 40.557 10.329 60.303 8.43 35.734-3.417 69.227-2.848 99.492 21.493zM584.917 136.596c-11.696-39.721 1.747-73.1 19.329-106.594 7.899-15.038 12.95-32.696 14.962-49.785 2.392-20.241-9.645-36.037-26.088-41.088-16.253-4.975-33.189 2.316-43.214 19.86-3.949 6.912-7.405 14.847-8.468 22.708-7.785 57.987 15.266 107.088 43.48 154.897zM469.78 434.921c19.177-65.657 28.86-132.948 8.772-199.782-7.063-23.544-24.456-45.645-41.81-63.986-16.291-17.203-39.797-16.367-60.303-3.455-21.607 13.632-32.164 36.265-22.633 58.556 11.392 26.62 27.759 52.785 47.658 73.708 47.886 50.354 59.581 69.834 68.316 134.961zM712.701 332.657c-11.127-41.429 4.785-75.303 22.974-109.328 6.874-12.836 10.823-28.177 12.683-42.911 2.583-20.544-9.266-37.519-26.316-42.911-16.253-5.164-33.151 1.937-43.29 19.405-3.987 6.874-7.594 14.772-8.582 22.633-7.291 56.924 14.316 105.72 42.532 153.113zM649.17 234.265c-9.987-37.86 2.316-69.91 19.063-101.846 7.937-15.152 13.595-32.506 16.405-49.556 3.304-20.127-9.152-37.822-26.050-43.214-16.215-5.164-34.214 1.671-43.177 19.633-5.697 11.392-10.177 24.949-10.405 37.671-0.798 50.354 17.203 95.164 44.164 137.315zM775.776 429.833c-10.861-35.164-2.013-66.303 13.975-96.911 8.051-15.38 15.607-31.746 19.405-48.683 5.697-25.405-6.379-46.139-26.468-51.873-19.595-5.582-41.050 6.342-47.126 31.138-4.519 18.455-5.43 38.999-3 57.987 5.127 39.379 20.278 75.455 43.214 108.341zM520.969 270.38c20.961-76.443 32.088-152.277-0.532-227.504-5.202-11.962-14.696-23.165-24.759-31.709-20.203-17.165-43.366-22.633-67.67-7.632-21.873 13.481-32.012 39.873-20.772 66.872 8.468 20.392 20.772 40.898 36.418 56.278 40.709 40.101 77.999 80.847 77.316 143.694zM987.596 281.924c-26.050-40.252-57.796-73.822-100.745-92.657-14.43-6.342-32.164-7.709-47.962-6.417-17.013 1.405-28.746 13.861-30.342 32.658-1.595 18.645 7.329 32.961 23.734 39.075 12.912 4.823 27.304 6.19 41.126 6.874 12.114 0.608 24.304-2.126 36.494-3.038 28.519-2.202 54.531 4.709 77.695 23.506zM924.711 185.278c-29.62-43.328-64.291-80.163-114.112-96.911-20.165-6.76-41.696-6.114-55.025 12.683-6.379 9-9.038 25.746-5.659 36.456 7.215 22.86 28.215 28.329 49.139 29.392 10.861 0.532 21.873-0.949 32.734-2.316 33.075-4.139 64.594-1.329 92.923 20.696zM861.826 87.457c-1.975-3.646-3.455-7.632-5.962-10.823-27.531-35.012-57.949-67.024-99.758-82.518-14.165-5.24-31.291-5.354-46.404-3.228-14.582 2.051-24.114 13.861-26.354 30.189-2.278 16.443 4.063 30.531 17.62 36.721 14.051 6.455 30.189 9.076 45.645 10.632 12 1.215 24.304-1.747 36.494-2.848 28.481-2.583 54.493 4.101 78.721 21.873zM932.002 432.529c-5.468-47.467-14.051-93.416-39.265-133.86-14.127-22.708-31.481-27.569-49.709-16.481-20.658 12.607-25.936 33.418-12.607 57.341 23.582 42.303 61.366 68.582 101.581 92.999zM378.679-53.314c27.342 8.62 49.518 15.607 76.138 23.999 4.329-16.975 9.038-33.873 12.912-50.962 7.025-30.873 14.886-61.708 19.329-92.999 1.177-8.354-7.481-24.683-13.975-26.012-10.899-2.278-30.987 0.949-34.481 8.089-21.683 44.392-39.835 90.53-59.924 137.885zM567.411-75.908c15.874-10.975 29.62-20.544 45.075-31.253-21.759-28.063-42.759-56.126-65.088-82.974-3.076-3.722-15.228-4.594-18.759-1.443-5.392 4.785-11.658 16.519-9.417 21.342 14.772 31.86 31.709 62.657 48.189 94.328z" />
<glyph unicode="&#xe603;" glyph-name="alarm" horiz-adv-x="921" d="M920.969 12.396c-0.054 2.728-3.623 5.878-6.197 7.976-22.373 18.227-46.473 34.477-67.038 54.718-44.546 43.845-73.957 97.192-78.206 162.556-2.889 44.442-2.412 89.121-4.456 133.638-2.47 53.869-9.949 106.982-25.428 158.605-31.244 104.193-90.833 178.162-195.834 204.145-2.794 0.693-6.148 6.836-6.226 10.504-0.842 40.23-27.943 73.323-65.803 79.529-36.126 5.924-72.091-16.98-83.579-54.221-1.679-5.438-2.67-11.114-3.515-16.996-1.363-9.513-3.963-17.742-5.812-18.331-1.049-0.331-2.197-0.68-3.357-0.978-73.423-18.919-129.036-62.437-165.495-132.522-23.082-44.371-36.43-92.138-44.533-141.683-10.55-64.506-12.432-129.621-11.947-194.905 0.402-54.287-14.794-103.463-44.96-147.52-26.812-39.161-60.675-70.093-99.687-95.115-3.42-2.193-8.357-5.916-8.44-9.054-0.688-25.461-0.389-50.946-0.389-76.424 307.759 0 613.9 0 921.186 0-0.004 25.817 0.195 50.955-0.282 76.079zM606.14-112.695h-291.048c-9.087 0-13.307-7.010-9.418-15.653l25.179-56.004c3.889-8.647 14.405-15.653 23.492-15.653h213.207c9.087 0 19.562 7.031 23.396 15.702l24.71 55.909c3.831 8.667-0.431 15.698-9.517 15.698z" />
<glyph unicode="&#xe604;" glyph-name="archive" horiz-adv-x="1154" d="M87.036 457.805c-4.134 0-8.388 0.231-12.407 0.571v-589.455c0-38.027 30.902-68.929 68.929-68.929h867.127c38.027 0 68.929 30.79 68.929 68.929v589.455c-4.134-0.343-8.269-0.571-12.407-0.571h-980.17zM772.885 196.793h-391.518c-19.073 0-34.463 15.397-34.463 34.467v91.446c0 19.073 15.393 34.467 34.463 34.467h391.398c19.073 0 34.463-15.393 34.463-34.467v-91.446h0.119c0-19.070-15.397-34.467-34.463-34.467zM1154.239 745.827c0 43.805-35.492 79.166-79.166 79.166h-995.907c-43.675 0-79.166-35.492-79.166-79.166v-158.4h74.629v-59.997h1004.984v60.001h74.629v158.396z" />
<glyph unicode="&#xe605;" glyph-name="arrow-down" horiz-adv-x="998" d="M375.191 786.41v-586.508l-217.806 217.821c-15.067 15.071-39.497 15.071-54.563 0l-91.521-91.521c-15.071-15.067-15.071-39.497 0-54.563l460.351-460.351c15.067-15.071 39.497-15.071 54.563 0l460.343 460.355c15.067 15.067 15.067 39.497-0.004 54.563l-91.521 91.521c-15.067 15.071-39.497 15.067-54.563 0l-233.786-233.813v602.496c0 21.309-17.273 38.583-38.583 38.583h-154.33c-21.305 0-38.579-17.273-38.579-38.583z" />
<glyph unicode="&#xe606;" glyph-name="arrow-left" horiz-adv-x="1053" d="M1013.251 439.596h-602.461l223.747 223.73c15.48 15.476 15.48 40.572 0 56.048l-94.011 94.011c-15.476 15.48-40.572 15.48-56.048 0l-472.869-472.873c-15.48-15.476-15.48-40.572 0-56.048l472.873-472.869c15.476-15.476 40.572-15.476 56.048 0.004l94.011 94.011c15.48 15.476 15.476 40.572 0 56.048l-240.174 240.146h618.884c21.888 0 39.632 17.743 39.632 39.632v158.528c0 21.888-17.743 39.632-39.632 39.632z" />
<glyph unicode="&#xe607;" glyph-name="arrow-right" horiz-adv-x="1053" d="M39.632 439.596h602.461l-223.747 223.73c-15.48 15.476-15.48 40.572 0 56.048l94.011 94.011c15.476 15.48 40.572 15.48 56.048 0l472.873-472.873c15.48-15.476 15.48-40.572 0-56.048l-472.877-472.865c-15.476-15.476-40.572-15.476-56.048 0.004l-94.011 94.011c-15.48 15.476-15.476 40.572 0 56.048l240.174 240.146h-618.884c-21.888 0-39.632 17.743-39.632 39.632v158.528c0 21.884 17.743 39.628 39.632 39.628z" />
<glyph unicode="&#xe608;" glyph-name="arrow-up" horiz-adv-x="998" d="M375.191-161.425v586.508l-217.806-217.821c-15.067-15.071-39.497-15.071-54.563 0l-91.521 91.521c-15.071 15.067-15.071 39.497 0 54.563l460.351 460.347c15.067 15.071 39.497 15.071 54.563 0l460.347-460.351c15.067-15.067 15.067-39.497-0.004-54.563l-91.521-91.521c-15.067-15.071-39.497-15.067-54.563 0l-233.786 233.813v-602.496c0-21.309-17.273-38.583-38.583-38.583h-154.33c-21.309 0-38.583 17.273-38.583 38.583z" />
<glyph unicode="&#xe609;" glyph-name="award" horiz-adv-x="854" d="M847.212 758.145c-7.247 38.803-36.501 56.355-79.645 50.958-15.4-1.925-20.421 0.868-17.476 15.892-215.57 0-431.138 0-646.746 0 1.624-11.966 1.509-18.383-15.589-16.080-50.467 6.87-80.022-16.986-85.609-69.152-6.832-63.753 2.453-125.695 30.273-183.786 31.065-64.848 69.113-80.589 144.229-58.318 18.194 5.397 25.705 1.396 35.028-13.551 29.14-46.73 66.811-85.080 117.467-108.785 9.323-4.378 9.549-8.493 5.548-17.175-21.365-46.126-30.235-95.536-36.991-145.474-1.434-10.682 2.415-12.91 11.966-12.872 75.568 0.226 151.174 0.49 226.742-0.151 15.664-0.113 13.929 8.795 12.645 18.232-6.379 46.126-14.381 91.988-33.934 134.717-5.171 11.286-5.435 16.457 7.436 22.195 53.034 23.591 91.195 64.131 121.43 112.446 7.701 12.268 13.929 18.005 29.329 11.626 13.702-5.662 29.14-7.36 43.975-9.89 36.048-6.115 65.339 6.908 85.005 36.539 47.221 70.963 60.432 149.702 44.918 232.63zM174.082 528.194c-15.4-2.944-30.575-7.096-46.051-9.549-25.63-4.077-43.408 9.059-57.261 28.763-23.705 33.858-33.481 72.775-39.294 112.861-2.189 14.91-3.057 30.008-3.963 39.030 0.075 23.177 1.321 40.2 7.549 56.204 9.587 24.611 53.373 34.198 72.699 16.495 3.888-3.548 3.020-7.927 3.813-12.117 14.419-75.493 33.934-149.438 67.905-218.853 3.624-7.511 3.472-11.135-5.397-12.834zM306.421 491.466c-11.853-8.681-19.175-0.151-25.743 9.512-48.579 71.567-77.757 151.401-100.028 234.178-0.49 1.812-0.793 3.662-1.208 5.586 1.019 8.002 3.737 14.873 12.758 16.306 9.323 1.509 15.363-1.963 18.232-11.815 6.757-23.441 13.664-46.919 21.553-70.019 18.722-54.808 41.484-107.728 75.115-155.364 6.719-9.512 10.38-20.27-0.68-28.386zM825.772 704.318c-2.265-47.371-8.568-94.177-30.989-136.755-31.594-60.017-57.866-55.449-118.146-38.464-8.493 2.378-4.983 6.454-2.793 11.022 34.085 70.737 54.468 145.7 68.321 222.627 0.642 3.662 0.868 6.946 4.416 9.739 25.781 20.496 68.585 5.624 75.077-26.913 2.718-13.475 5.889-27.178 4.114-41.256zM622.169 141.974c-0.529 25.818-16.080 40.275-41.823 40.955-15.702 0.415-31.443 0.075-47.145 0.075-86.741 0-173.519 0.113-260.261-0.075-28.158-0.038-44.956-13.929-45.408-39.105-0.604-33.896 0.377-67.868 0.68-101.764h-101.349v-242.067h599.676v242.067h-105.011c0.302 33.33 1.283 66.622 0.642 99.915z" />
<glyph unicode="&#xe60a;" glyph-name="badge" horiz-adv-x="798" d="M794.999-46.311l-135.63 300.241-8.151-5.173c-2.755-1.768-5.067-4.079-6.725-6.725l-34.152-53.652c-10.577-16.639-28.76-27.11-48.483-27.988l-63.567-2.755c-3.198-0.113-6.391-0.995-9.147-2.425l-8.924-4.629-63.352-140.478 87.37-193.696c8.818-19.5 35.481-21.922 47.708-4.408l66.44 95.419c7.489 10.244 17.188 15.644 23.576 11.788l126.927-4.405c20.382-0.666 34.486 20.269 26.111 38.887zM432.613 125.459c-8.59-4.185-18.286-6.497-27.874-6.497-9.695 0-19.39 2.312-27.984 6.835l-15.867 8.265-40.654 21.048c-2.869 1.43-6.062 2.312-9.147 2.418l-63.575 2.755c-19.723 0.882-37.903 11.353-48.476 27.988l-34.156 53.66c-1.764 2.755-4.079 5.067-6.721 6.721l-17.521 11.13-138.159-306.303c-8.265-18.286 5.177-38.891 25.006-38.891h0.995l127.918 4.405c9.033 0 17.407-4.405 22.584-11.788l66.44-95.419c5.509-7.936 14.1-11.788 22.584-11.788 10.248 0 20.382 5.615 25.124 16.193l105.44 233.805 34.156 75.583-0.113-0.117zM100.316 419.199c3.747-7.16 5.836-14.982 6.168-23.023l2.755-63.575c0.442-9.033 5.177-17.188 12.779-22.036l3.97-2.531 28.201-17.85 21.487-13.661c6.835-4.299 12.563-10.142 16.858-16.858l34.152-53.66c4.848-7.602 13.003-12.337 22.036-12.779l63.575-2.755c8.042-0.333 15.863-2.425 23.030-6.168l3.409-1.764 52.998-27.546c3.97-2.093 8.374-3.084 12.673-3.084 4.291 0 8.699 0.992 12.669 3.084l56.521 29.309c1.43 0.768 2.861 1.43 4.405 1.979 5.949 2.425 12.227 3.856 18.622 4.189l1.438 0.106 62.137 2.755c9.037 0.442 17.188 5.181 22.036 12.783l34.156 53.66c4.299 6.827 10.134 12.556 16.858 16.855l53.547 34.043c7.602 4.848 12.34 13.003 12.775 22.036l2.755 63.575c0.333 8.042 2.425 15.863 6.172 23.030l29.309 56.521c4.185 7.932 4.185 17.411 0 25.339l-29.089 56.525c-3.747 7.16-5.839 14.982-6.172 23.027l-2.755 63.462c-0.435 9.037-5.177 17.188-12.775 22.036l-53.652 34.156c-6.835 4.299-12.563 10.134-16.855 16.858l-34.156 53.656c-4.848 7.602-13.003 12.34-22.036 12.783l-63.575 2.755c-8.042 0.329-15.867 2.425-23.030 6.168l-56.521 29.313c-3.966 2.089-8.371 3.080-12.669 3.080s-8.703-0.992-12.669-3.080l-56.525-29.313c-7.167-3.743-14.986-5.843-23.030-6.168l-63.575-2.755c-9.029-0.442-17.184-5.181-22.032-12.783l-34.152-53.652c-4.299-6.835-10.142-12.563-16.858-16.862l-53.66-34.156c-7.602-4.848-12.337-12.999-12.779-22.036l-2.755-63.575c-0.333-8.042-2.425-15.867-6.168-23.027l-29.309-56.517c-4.185-7.936-4.185-17.411 0-25.347l29.309-56.521z" />
<glyph unicode="&#xe60b;" glyph-name="bin" horiz-adv-x="764" d="M89.665-150.58c1.152-27.632 23.892-49.428 51.536-49.428h481.554c27.652 0 50.38 21.796 51.548 49.428l34.389 725.98h-653.423l34.397-725.98zM490.918 395.083c0 11.564 9.372 20.952 20.948 20.952h33.512c11.564 0 20.952-9.388 20.952-20.952v-414.766c0-11.58-9.388-20.952-20.952-20.952h-33.512c-11.564 0-20.948 9.372-20.948 20.952v414.766zM344.281 395.083c0 11.564 9.372 20.952 20.94 20.952h33.52c11.564 0 20.94-9.388 20.94-20.952v-414.766c0-11.58-9.376-20.952-20.94-20.952h-33.52c-11.568 0-20.94 9.372-20.94 20.952v414.766zM197.633 395.083c0 11.564 9.372 20.952 20.952 20.952h33.508c11.568 0 20.952-9.388 20.952-20.952v-414.766c0-11.58-9.384-20.952-20.952-20.952h-33.508c-11.568 0-20.952 9.372-20.952 20.952v414.766zM731.591 772.185h-222.161v42.004c0 5.964-4.84 10.805-10.805 10.805h-233.289c-5.968 0-10.808-4.84-10.808-10.805v-41.988h-222.161c-17.876-0.004-32.369-14.496-32.369-32.385v-101.684h763.96v101.684c0 17.872-14.492 32.369-32.369 32.369v0z" />
<glyph unicode="&#xe60c;" glyph-name="blackboard" horiz-adv-x="1005" d="M95.488 824.938c-23.53-0.004-30.404-7.531-30.408-32.036-0.008-191.975-0.008-383.951-0.004-575.926 0-26.269 6.756-33.394 31.741-33.398 135.158-0.012 270.32-0.004 405.478-0.004 135.586 0 271.174-0.012 406.756 0.012 23.014 0.004 30.439 7.878 30.439 32.123 0.008 192.42 0.008 384.844 0 577.264 0 24.407-6.953 31.958-30.498 31.966-271.162 0.071-542.336 0.075-813.505 0zM988.243 141.755c-4.493 1.078-9.302 0.964-13.965 0.964-314.648 0.039-629.297 0.039-943.946 0.012-4.253 0-8.613 0.224-12.736-0.642-11.029-2.313-17.36-10.042-17.592-21.472-0.228-11.32 5.351-19.748 16.482-22.298 5.331-1.224 10.982-1.282 16.486-1.286 146.352-0.059 292.705-0.047 439.057-0.047-22.786-31.194-45.481-62.448-68.189-93.689-40.146-55.232-80.37-110.413-120.325-165.758-9.431-13.067-6.784-26.595 5.579-33.98 11.403-6.811 26.206-3.446 35.472 8.397 5.666 7.24 10.825 14.81 16.227 22.224 53.445 73.379 106.894 146.757 161.379 221.552 4.061-5.426 7.122-9.416 10.073-13.472 55.35-75.987 110.645-152.006 166.061-227.947 10.163-13.929 24.907-18.025 37.026-10.848 13.256 7.846 15.169 21.712 4.552 36.305-62.366 85.773-124.759 171.531-187.274 257.213 146.396 0 292.787-0.016 439.183 0.059 5.922 0.004 12.092-0.020 17.714 1.61 10.242 2.967 15.408 11.010 15.043 22.047-0.354 10.982-5.875 18.552-16.31 21.059z" />
<glyph unicode="&#xe60d;" glyph-name="book" horiz-adv-x="827" d="M703.050 823.532c0-50.159 0-98.668 0-149.058 42.45 0 82.14 0 123.71 0 0-291.71 0-581.388 0-873.099-7.938-0.46-15.76-1.304-23.622-1.304-201.402-0.077-402.803-0.115-604.243-0.038-105.839 0.038-196.608 84.557-197.49 190.089-1.918 228.283-1.726 456.643-0.306 684.927 0.537 89.082 63.887 148.175 156.803 149.211 123.096 1.342 246.23 0.421 369.364 0.46 49.737 0 99.474 0.077 149.211 0 8.015-0.038 15.953-0.691 26.575-1.189zM782.084-143.518c0 258.194 0 512.171 0 765.993-26.881 0-51.808 0-79.763 0 0-184.452 0-367.409 0-552.129-11.044 0-19.059 0-27.073 0-159.027-0.038-318.055 0.959-477.044-0.997-29.105-0.345-59.898-8.666-86.628-20.669-41.837-18.828-58.595-60.935-51.577-111.362 5.483-39.498 33.363-67.069 78.421-76.158 14.265-2.876 29.029-4.717 43.563-4.717 154.924-0.23 309.887 0 464.811 0.077 44.675 0 89.35-0.038 135.29-0.038zM392.971 511.114v-0.077c-48.011 0-95.984-0.268-143.996 0.153-15.569 0.153-29.451-3.068-29.451-20.861 0-17.525 13.959-21.59 29.375-21.551 95.984 0.115 192.007 0.077 287.99 0.038 15.991 0 31.292 3.106 30.602 22.625-0.652 18.139-15.684 19.825-30.563 19.749-47.935-0.23-95.946-0.077-143.957-0.077zM393.393 580.446c48.011 0 95.984 0.192 143.996-0.115 15.071-0.077 29.834 1.879 30.179 20.056 0.345 19.442-15.033 22.357-30.985 22.357-95.179-0.077-190.358-0.115-285.536 0.038-15.991 0-31.714-2.723-31.445-21.934 0.268-19.595 16.489-20.669 32.212-20.554 47.206 0.345 94.373 0.153 141.579 0.153zM393.316 399.561c-48.932 0-97.864-0.153-146.794 0.077-14.763 0.077-27.111-3.528-26.92-20.593 0.192-17.027 12.847-20.286 27.419-20.286 97.864 0.153 195.726 0.153 293.59 0.038 14.648 0 27.304 3.72 27.073 20.631-0.23 16.872-13 20.286-27.572 20.209-48.932-0.192-97.864-0.077-146.794-0.077zM705.313-56.776c-27.266 0-53.112 0-78.996 0-144.916 0-289.793 0-434.709 0.038-6.519 0-15.033-2.186-19.097 1.074-7.9 6.327-17.525 15.339-18.369 24.043-0.614 6.212 11.312 14.495 18.867 20.286 3.144 2.416 9.472 0.882 14.342 0.882 159.565 0.077 319.129 0.153 478.693 0.115 42.45-0.038 42.45-0.23 39.268-46.439z" />
<glyph unicode="&#xe60e;" glyph-name="bookmark" horiz-adv-x="631" d="M0 799.669v-986.565c0-13.986 7.806-17.308 17.432-7.416l280.674 288.317c9.626 9.888 25.234 9.888 34.861 0l280.674-288.317c9.626-9.888 17.432-6.569 17.432 7.416v986.565c-0.004 13.986-11.042 25.324-24.657 25.324h-581.767c-13.611 0-24.649-11.338-24.649-25.324z" />
<glyph unicode="&#xe60f;" glyph-name="brain-idea" horiz-adv-x="865" d="M828.162 615.283c-34.568 71.71-89.362 123.93-160.337 157.763-105.91 50.381-217.705 66.194-331.706 38.245-138.272-34.2-219.912-127.975-256.686-263.305-9.561-35.303-13.239-71.71-13.606-108.117 0-5.884 0.367-11.4 2.575-16.917 6.619-17.652 6.252-34.936 0-52.587-10.297-28.684-22.433-56.632-34.2-84.582-11.4-27.214-25.742-53.323-34.2-81.64v-8.090c2.575-2.206 1.471-5.516 2.206-8.458 3.678-15.078 12.872-22.433 27.948-23.168 7.355-0.367 15.078-0.367 22.065-3.678 11.767-5.884 13.975-16.181 5.148-26.109-14.342-16.548-9.929-36.775 10.297-45.232 8.090-3.309 16.548-6.619 24.639-9.929 5.148-1.839 7.355-4.413 1.839-8.090-16.181-10.297-14.709-23.903-9.194-38.981 1.839-5.148 4.413-8.826 9.194-11.4 6.252-3.678 11.767-8.090 18.020-11.4 12.872-7.355 16.181-18.755 14.709-31.994-1.103-9.194-1.839-19.123-4.781-27.948-12.872-34.568 23.536-79.433 62.884-78.329 29.787 0.736 58.471 8.826 87.155 17.284 10.664 2.942 21.329 6.619 31.626 10.664 6.987 2.942 9.561 1.471 11.033-5.884 5.884-30.155 12.503-59.575 18.755-89.362 0-1.471 0.736-2.575 1.103-4.045h4.045c16.181 8.826 34.2 12.503 51.117 18.020 102.969 32.362 205.57 64.356 308.538 95.982 6.619 2.206 8.458 5.148 7.723 11.4-5.516 38.614-9.929 77.226-15.445 115.472-1.471 9.561 0 17.652 5.148 25.742 30.155 45.232 63.62 88.259 93.040 134.227 28.317 45.232 55.529 91.201 65.826 143.788 17.983 92.709 15.078 183.873-26.478 270.66zM433.204 357.494c-11.767 9.929-23.168 19.858-34.568 29.787-2.206 1.839-3.678 2.206-6.619 1.103-6.252-2.206-12.503-4.045-19.123-5.884-2.942-0.736-4.045-2.206-4.781-5.148-3.309-15.445-6.987-30.89-10.664-47.071h-40.084c-3.678 16.181-7.355 31.626-10.664 47.071-0.736 3.309-2.206 4.413-5.148 5.148-6.252 1.839-12.503 3.678-18.755 5.884-2.575 1.103-4.413 0.736-6.619-1.103-11.4-9.929-22.8-19.858-34.568-29.787-0.736-0.736-3.309-1.471-4.413-0.736-10.297 6.619-20.594 13.975-30.89 20.961 6.987 15.078 13.239 29.42 19.858 43.762 1.471 3.309 1.103 5.516-1.103 8.458-4.045 4.413-7.723 9.561-11.033 14.342-1.471 2.575-3.309 3.678-6.252 3.309-14.709-1.471-29.42-2.942-44.129-4.413-3.309-0.367-5.884-0.367-6.987 3.678-3.678 11.033-7.355 21.697-11.4 32.362 2.206 1.471 3.678 2.575 5.148 3.309 12.503 7.355 25.375 14.709 38.245 21.697 2.575 1.471 3.309 2.942 3.309 5.884-0.367 6.619-0.367 12.872 0 19.49 0 2.942-0.736 4.413-3.309 5.884-12.872 6.987-25.742 14.709-38.614 22.065-1.471 0.736-2.575 1.471-4.781 2.575 4.045 11.767 8.090 23.168 12.503 34.568 0.367 1.103 2.575 1.839 4.045 1.839 14.342-1.103 28.684-2.575 43.026-4.045 4.781-0.736 8.090 0 10.664 4.781s6.252 8.826 9.929 13.239c1.839 2.206 2.206 4.045 1.103 6.987-6.619 14.342-13.239 29.051-20.226 44.497 10.297 6.987 20.594 13.975 30.89 20.961 1.103 0.736 3.309 0 4.413-1.103 11.767-9.561 23.168-19.49 34.568-29.42 2.206-1.839 4.045-2.206 6.619-1.103 6.252 2.206 12.872 4.045 19.123 5.884 2.575 0.736 4.045 1.839 4.781 4.781 3.309 15.445 6.987 30.89 10.664 47.071h40.084c3.678-15.813 7.355-31.259 10.664-46.704 0.736-2.942 1.839-4.413 4.781-5.148 6.619-1.839 12.872-3.678 19.123-5.884 2.575-1.103 4.045-1.103 6.252 0.736 11.4 10.297 23.168 19.858 34.568 29.787 1.839 1.839 3.309 2.575 5.516 0.736 9.929-6.619 19.858-13.606 30.155-20.594-5.148-11.033-9.561-20.961-14.342-31.259-1.839-4.781-3.678-9.561-6.252-13.975-1.103-2.206-0.367-4.045 1.103-5.884 4.045-5.148 8.090-10.297 11.767-15.813 1.839-2.575 3.309-3.309 6.252-2.942 14.709 1.471 29.42 2.575 43.762 4.413 4.045 0.367 6.252 0 7.355-4.045 3.678-10.664 7.355-21.329 11.033-32.362-10.297-5.884-19.858-11.4-29.42-17.284-4.781-2.575-9.561-5.148-14.342-8.090-1.103-0.736-2.206-2.942-2.575-4.413 0-6.987 0.367-13.606 0-20.594 0-2.575 0.736-4.045 2.942-5.148 12.872-7.355 25.742-14.709 38.614-22.065 1.471-0.736 2.575-1.839 5.148-3.309-4.045-11.033-8.090-22.433-12.136-33.833-0.736-1.103-2.942-2.575-4.045-2.206-14.342 1.103-29.051 2.575-43.394 4.045-4.413 0.736-7.723 0.367-10.664-4.413-2.575-5.148-6.619-9.561-10.297-13.975-1.471-1.839-2.206-3.678-0.736-6.252 6.619-14.709 13.239-29.42 20.226-44.865-10.297-6.987-20.594-14.342-31.259-20.961-0.773-0.736-3.346 0.037-4.045 0.736zM698.678 280.672c8.458-5.148 17.284-9.929 26.109-15.078 1.103-0.736 1.839-1.103 3.309-2.206-2.575-7.723-5.148-15.445-8.090-23.168-0.367-0.736-1.839-1.839-2.942-1.471-9.561 0.736-19.49 1.471-29.42 2.575-3.309 0.367-5.516 0.367-7.355-2.942s-4.413-6.252-6.987-9.561c-1.103-1.471-1.471-2.575-0.367-4.413 4.413-9.929 8.826-19.858 13.606-30.523-6.987-4.781-13.975-9.561-21.329-14.342-0.367-0.367-2.206 0-2.942 0.736-7.723 6.619-15.813 13.239-23.536 20.226-1.471 1.103-2.575 1.471-4.413 0.736-4.045-1.471-8.458-2.942-12.872-4.045-2.206-0.367-2.942-1.471-3.309-3.309-2.575-10.664-4.781-21.329-7.355-32.362h-27.581c-2.206 11.033-4.781 21.697-6.987 31.994-0.736 2.206-1.471 3.309-3.678 3.678-4.413 1.103-8.458 2.575-12.872 4.045-1.839 0.736-2.942 0.736-4.413-0.736-7.723-6.987-15.445-13.606-23.536-20.226-0.736-0.736-2.575-1.103-3.309-0.736l-20.961 14.342c4.781 10.297 9.194 20.226 13.606 29.787 1.103 2.575 0.736 4.045-0.736 5.884-2.942 3.309-5.148 6.619-7.355 9.929-1.471 1.839-2.575 2.206-4.413 2.206-10.297-1.103-20.226-1.839-30.155-2.942-2.575-0.367-4.045-0.367-4.781 2.575-2.575 7.355-5.148 14.709-7.723 22.065 1.471 0.736 2.206 1.471 3.309 2.206 8.826 4.781 17.284 9.929 26.109 14.709 1.839 1.103 2.575 2.206 2.206 4.045v13.239c0.367 2.206-0.367 2.942-2.206 4.045-8.826 5.148-17.652 9.929-26.478 15.078-0.736 0.367-1.471 1.103-2.942 1.839 2.575 8.090 5.516 15.813 8.458 23.536 0 0.736 1.839 1.471 2.575 1.471 9.929-1.103 19.858-1.839 29.42-2.942 3.309-0.367 5.516 0 7.355 3.309s4.413 6.252 6.987 8.826c1.103 1.839 1.471 2.942 0.736 4.781-4.781 9.929-9.194 20.226-13.975 30.523 6.987 4.781 13.975 9.929 20.961 14.342 0.736 0.367 2.575 0 3.309-0.367 8.090-6.987 15.813-13.606 23.536-20.594 1.471-1.103 2.575-1.471 4.413-0.736 4.413 1.471 8.826 2.942 13.239 4.045 1.839 0.736 2.575 1.471 2.942 3.309 2.575 10.664 4.781 21.329 7.355 32.362h27.581c2.575-11.033 4.781-21.697 7.355-31.994 0.367-2.206 1.103-2.942 3.309-3.678 4.413-1.103 8.458-2.575 12.872-4.045 1.839-0.367 2.942-0.367 4.413 0.736 7.723 6.987 15.445 13.606 23.536 20.226 1.103 1.103 2.206 1.839 3.678 0.736 6.619-4.781 13.606-9.561 20.594-14.342-3.309-7.355-6.619-14.342-9.561-21.329-1.471-3.309-2.942-6.252-4.413-9.561-0.736-1.471-0.367-2.575 0.736-3.678 2.575-3.678 5.516-7.355 8.090-11.033 1.103-1.839 2.206-2.206 4.045-1.839 9.929 0.736 20.226 1.839 30.155 2.942 2.575 0 4.045 0 5.148-2.942 2.206-7.355 4.781-14.709 7.355-22.065-6.987-4.045-13.606-7.723-20.226-11.767-3.309-1.839-6.619-3.309-9.561-5.516-1.103-0.736-1.839-2.206-1.839-2.942v-13.975c0-1.876 0.367-2.942 2.206-3.678zM789.549 518.933c-0.367-0.736-1.839-1.471-2.942-1.471-9.561 0.736-19.49 1.839-29.42 2.942-2.942 0.367-5.148 0-6.987-3.309s-4.781-6.252-7.355-9.194c-1.103-1.471-1.471-2.575-0.367-4.413 4.413-9.929 8.826-20.226 13.606-30.89-6.987-4.781-13.975-9.561-21.329-14.342-0.367-0.367-2.206 0-2.575 0.736-8.090 6.619-15.813 13.239-23.903 20.226-1.471 1.471-2.575 1.471-4.413 0.736-4.045-1.471-8.458-2.575-12.872-4.045-2.206-0.367-2.942-1.471-3.309-3.309-2.206-10.664-4.781-20.961-7.355-31.994h-27.581c-2.206 10.664-4.781 21.329-6.987 31.994-0.367 2.206-1.471 2.942-3.678 3.678-4.413 1.103-8.458 2.206-12.503 3.678-2.206 0.736-3.309 0.736-4.781-0.736-7.723-6.619-15.445-13.606-23.536-20.226-0.736-0.736-2.575-1.103-2.942-0.736-7.355 4.781-13.975 9.561-21.329 14.342 4.781 10.297 9.194 20.226 13.606 30.155 1.103 2.206 0.736 3.678-0.736 5.516-2.942 3.309-5.148 6.619-7.355 9.929-1.103 1.839-2.575 2.575-4.413 2.206-10.297-1.103-20.226-1.839-30.155-2.942-2.206-0.367-4.045 0-4.781 2.575-2.575 7.355-5.148 14.709-7.723 22.065 1.471 1.103 2.206 1.471 3.309 2.206 8.826 5.148 17.652 9.929 26.109 15.078 1.839 0.736 2.575 1.839 2.575 3.678-0.367 4.413-0.367 8.826 0 13.239 0 2.206-0.736 3.309-2.206 4.045-9.194 5.148-18.020 10.297-26.478 15.078-1.103 0.736-1.839 1.103-3.309 1.839 2.942 8.090 5.516 15.813 8.458 23.903 0.367 0.736 1.839 1.103 2.575 1.103 9.929-0.736 19.858-1.839 29.42-2.942 3.309-0.367 5.516 0 7.355 3.309s4.413 6.252 6.987 9.194c1.103 1.471 1.471 2.575 0.736 4.781-4.781 9.929-9.194 19.858-13.975 30.523 6.987 4.781 13.975 9.561 21.329 13.975 0.367 0.736 2.206 0 2.942-0.367 8.090-6.619 15.813-13.606 23.536-20.226 1.471-1.471 2.575-1.471 4.781-1.103 4.045 1.839 8.458 2.942 12.872 4.413 1.839 0.367 2.575 1.103 3.309 2.942 2.206 10.664 4.781 21.329 6.987 32.362h27.581c2.575-11.033 5.148-21.329 7.355-31.994 0.367-2.206 1.103-2.942 3.309-3.309 4.413-1.471 8.826-2.575 12.872-4.045 1.839-0.736 2.942-0.736 4.413 0.367 7.723 6.987 15.813 13.606 23.536 20.594 1.103 1.103 2.206 1.471 3.678 0.367 6.987-4.781 13.606-9.194 20.594-13.975-3.309-7.723-6.252-14.709-9.561-21.697-1.471-2.942-2.575-6.252-4.413-9.561-0.736-1.471-0.367-2.575 0.736-3.678 2.942-3.678 5.516-7.355 8.090-11.033 1.103-1.471 2.206-2.206 4.045-1.839 10.297 1.103 20.226 1.839 30.155 2.942 2.575 0.367 4.045 0 5.148-2.575 2.206-7.723 4.781-14.709 7.355-22.433-6.987-4.045-13.606-7.723-20.226-11.4-3.309-1.839-6.252-3.678-9.561-5.884-0.736-0.367-1.839-1.839-1.839-2.942v-13.975c0-1.839 0.367-2.942 2.206-3.678 8.826-5.148 17.284-9.929 26.109-15.078 1.103-0.367 1.839-1.103 3.678-2.206-2.979-7.686-5.553-15.408-8.458-23.168zM337.295 619.254c-54.757-0.11-99.071-44.718-98.997-99.622 0.073-54.72 45.012-99.659 99.401-99.328 55.052 0.331 98.813 44.533 98.739 99.732-0.073 55.162-44.24 99.328-99.144 99.218zM599.314 370.144c-37.142 0-66.672-29.751-66.672-67.114 0-37.289 29.64-66.746 67.039-66.599 37.252 0.11 66.966 29.824 66.966 66.966-0.073 36.738-30.303 66.746-67.334 66.746zM664 636.685c-37.326-0.037-67.077-29.714-66.966-66.782 0.11-36.848 30.376-67.003 67.261-66.966 37.105 0.037 66.488 29.787 66.488 67.224-0.037 37.731-28.978 66.562-66.782 66.525z" />
<glyph unicode="&#xe610;" glyph-name="briefcase" horiz-adv-x="1353" d="M813.255 109.757h-272.836v124.394h-540.419v-371.397c0-34.669 28.088-62.758 62.758-62.758h1228.009c34.859 0 62.902 28.092 62.902 62.758v371.397h-540.415v-124.394zM1290.768 668.166h-421.142v136.134c0 23.487-15.080 20.576-15.080 20.576h-392.677c0 0-16.535-1.831-16.535-21.141v-135.572h-382.576c-34.669 0.004-62.758-28.088-62.758-62.758v-279.837h1353.67v279.837c0 34.669-28.043 62.762-62.902 62.762zM805.549 668.166h-295.952v109.357h295.952v-109.357z" />
<glyph unicode="&#xe611;" glyph-name="calendar" horiz-adv-x="1021" d="M789.927 718.463c0.050 15.016 0.16 29.301-0.019 43.656-0.225 27.497-17.687 50.591-44.554 59.389-26.42 8.579-55.189-0.218-71.982-21.887-9.738-12.428-13.881-26.725-13.881-42.233v-38.274c0-6.073-5.010-10.999-11.194-10.999h-68.966c-6.183 0-11.194 4.923-11.171 10.999 0.050 13.082 0.149 25.754-0.023 38.496-0.447 29.916-16.235 53.45-41.981 63.020-42.428 15.726-87.318-13.969-88.438-58.95-0.355-14.095-0.218-28.186-0.145-42.443 0.031-6.073-4.98-11.007-11.163-11.007h-70.862c-6.183 0-11.194 4.923-11.060 10.995 0.389 17.908 1.372 35.378-0.581 52.464-2.687 24.856-18.806 41.461-42.654 49.491-23.397 7.919-45.115 3.409-64.033-12.649-16.792-14.186-22.502-32.882-22.392-53.997 0.088-11.947 0.107-23.893 0.111-36.406 0.004-6.073-5.010-10.999-11.194-10.999h-192.553c-6.18 0-11.194-4.923-11.194-10.999v-885.138c0-6.073 5.010-10.999 11.194-10.999h998.471c6.183 0 11.194 4.923 11.194 10.999v885.471c0 6.073-5.010 10.999-11.194 10.999h-208.562c-6.18-0.004-11.194 4.93-11.175 11.003zM306.069-156.234h-250.429c-6.183 0-11.194 4.923-11.194 10.999v174.981c0 6.073 5.010 10.999 11.194 10.999h250.429c6.183 0 11.194-4.923 11.194-10.999v-174.981c0-6.077-5.014-10.999-11.194-10.999zM306.18 85.726h-250.54c-6.183 0-11.194 4.923-11.194 10.999v185.101c0 6.073 5.010 10.999 11.194 10.999h250.54c6.183 0 11.194-4.923 11.194-10.999v-185.101c0-6.073-5.010-10.999-11.194-10.999zM306.291 337.698h-250.765c-6.183 0-11.194 4.923-11.194 10.999v177.617c0 6.073 5.010 10.999 11.194 10.999h250.765c6.183 0 11.194-4.923 11.194-10.999v-177.621c0-6.073-5.010-10.995-11.194-10.995zM639.899-156.455h-264.982c-6.183 0-11.194 4.923-11.194 10.999v174.763c0 6.073 5.010 10.999 11.194 10.999h264.982c6.183 0 11.194-4.923 11.194-10.999v-174.763c0-6.073-5.010-10.999-11.194-10.999zM651.57 91.768c-0.168-3.34-5.266-6.042-11.45-6.042h-265.204c-6.183 0-11.194 4.923-11.194 10.999v185.212c0 6.073 2.851 11.159 6.374 11.366 2.129 0.126 4.246 0.237 6.39 0.29 87.207 0 174.415-0.218 261.622 0.221 10.525 0 14.106-2.308 13.995-13.418-0.558-60.822-0.225-121.752-0.336-182.57-0.004-2.006-0.095-3.986-0.199-6.057zM651.877 344.188c0-3.401-5.010-6.161-11.194-6.161h-265.991c-6.183 0-11.194 4.923-11.194 10.999v177.95c0 6.073 2.931 10.999 6.55 10.999h6.55c87.207 0 174.415-0.111 261.622 0.218 10.525 0.111 13.995-2.419 13.881-13.418-0.558-58.182-0.225-116.253-0.225-174.43 0 0 0-2.756 0-6.157zM707.963 292.602h256.697c6.183 0 11.194-4.923 11.194-10.999v-184.879c0-6.073-5.010-10.999-11.194-10.999h-256.697c-6.183 0-11.194 4.923-11.194 10.999v184.879c0 6.077 5.010 10.999 11.194 10.999zM964.775-156.234h-256.811c-6.183 0-11.194 4.923-11.194 10.999v174.763c0 6.073 5.010 10.999 11.194 10.999h256.811c6.183 0 11.194-4.923 11.194-10.999v-174.763c0-6.077-5.014-10.999-11.194-10.999zM964.775 338.028h-256.811c-6.183 0-11.194 4.923-11.194 10.999v177.182c0 6.073 5.010 10.999 11.194 10.999h256.811c6.183 0 11.194-4.923 11.194-10.999v-177.182c0-6.077-5.014-10.999-11.194-10.999z" />
<glyph unicode="&#xe612;" glyph-name="camera" horiz-adv-x="1308" d="M1131.136 637.153c-57.633 0.059-115.268 0-172.901 0h-12.992v100.649c0 48.128-32.089 87.19-71.646 87.19h-439.329c-39.557 0-71.615-39.062-71.615-87.19v-100.649h-13.428c-59.087 0-118.172 0.145-177.263-0.027-96.637-0.263-171.911-75.8-171.939-172.41-0.027-163.717-0.027-327.407 0-491.124 0-99.311 73.998-173.573 173.132-173.573 319.644-0.059 639.293-0.027 958.937 0.059 10.608 0 21.422 0.027 31.795 1.948 88.093 16.102 143.953 83.559 143.953 173.395 0.027 161.77 0.027 323.539 0 485.282 0.004 102.393-74.080 176.332-176.706 176.45zM475.187 706.004c0 32.116 26.042 58.128 58.128 58.128h241.23c32.116 0 58.128-26.011 58.128-58.128v-12.47c0-32.116-26.011-58.128-58.128-58.128h-241.23c-32.085 0-58.128 26.011-58.128 58.128v12.47zM650.389-82.907c-164.125 1.248-298.282 138.287-297.119 303.574 1.135 165.287 136.834 299.185 301.945 297.964 165.869-1.248 300.552-136.457 299.416-300.638-1.166-167.789-137.011-302.153-304.242-300.901zM653.848 420.341c-111.129-0.063-202.477-90.276-202.466-199.941 0.012-112.586 89.963-203.973 201.786-205.009 110.458-1.025 204.083 92.655 203.337 203.451-0.754 111.882-90.952 201.563-202.658 201.5z" />
<glyph unicode="&#xe613;" glyph-name="cart" horiz-adv-x="1198" d="M1003.995 146.897c63.245 159.922 127.311 319.521 191.084 479.234 1.176 2.945 2.133 5.975 3.184 9.438 1.6 5.267-9.12 9.528-23.97 9.528-307.047 0-612.047 0-918.007 0-14.851 0-29.333 11.781-32.348 26.323-8.926 43.062-17.691 85.355-26.377 127.246-3.015 14.541-17.507 26.328-32.358 26.328-46.864 0-92.831 0-138.324 0-14.851 0-26.88-12.040-26.88-26.89 0-4.645 0-9.279 0-13.924 0-14.851 12.025-26.895 26.875-26.895 27.862 0 55.321 0 82.924 0 14.851 0 29.278-11.796 32.232-26.352 50.551-248.861 100.859-496.531 151.281-744.744 2.955-14.551-5.422-32.273-15.399-43.276-13.874-15.304-22.435-35.407-22.361-57.080 0.154-47.113 38.796-85.77 85.789-85.819 46.77-0.045 86.547 39.184 86.712 85.521 0.035 10.405-1.949 20.467-5.566 29.816-5.357 13.849-1.345 23.178 13.505 23.178 142.241 0 284.333 0 426.449 0 14.851 0 18.857-9.329 13.395-23.138-3.573-9.040-5.657-18.752-5.901-28.834-1.091-45.418 39.264-86.233 85.6-86.567 46.964-0.339 86.392 38.128 86.896 84.778 0.284 26.263-12.17 50.472-31.426 66.643-11.372 9.548-22.868 22.794-22.868 33.728s-12.035 19.799-26.885 19.799c-191.761 0-382.725 0-573.719 0-14.851 0-29.308 11.781-32.283 26.328-4.804 23.457-9.528 46.53-14.382 70.222-2.98 14.546 0.753 26.333 8.332 26.333 4.914 0 9.319 0 13.724 0 203.766 0 407.538 0.204 611.304-0.388 15.977-0.040 23.736 4.221 29.766 19.47z" />
<glyph unicode="&#xe614;" glyph-name="certificate" horiz-adv-x="810" d="M724.519 600.285v-172.078c-9.701 2.986-20.157 5.599-30.605 8.212v139.23c0 20.903-11.198 50.765-25.009 66.815-17.544 20.53-35.087 41.060-53.005 61.589-13.811 16.051-27.622 32.475-41.806 48.525-13.811 15.677-41.806 28.742-63.083 28.742h-441.956c-20.903 0-38.073-17.171-38.073-38.073v-861.508c0-20.903 17.171-37.701 38.073-37.701h389.695v-44.046h-416.943c-23.143 0-41.806 18.663-41.806 41.806v941.388c0 23.143 18.663 41.806 41.806 41.806h483.385c22.769 0 53.378-14.184 68.682-31.355 15.304-17.916 30.608-35.461 45.912-53.005 19.41-22.396 38.447-44.793 57.857-67.189 14.931-17.544 26.875-50.391 26.875-73.161zM804.477 201.28c6.962 8.272 6.805 16.984-0.034 25.185-5.256 6.304-11.090 12.131-16.67 18.164-7.010 7.581-10.105 16.058-6.551 26.346 2.565 7.432 4.972 14.935 7.044 22.516 3.452 12.62 0.477 19.235-11.523 24.871-6.783 3.188-13.927 5.621-20.966 8.245-10.548 3.934-16.973 10.967-18.234 22.534-0.855 7.809-2.008 15.629-3.696 23.296-2.636 11.956-7.824 16.219-20.079 16.316-7.861 0.063-15.789-0.421-23.579-1.467-11.627-1.557-19.887 3.147-26.156 12.419-4.024 5.954-7.731 12.139-12.042 17.872-8.395 11.157-16.025 12.777-28.477 6.282-4.542-2.37-9.093-4.883-13.206-7.914-13.382-9.855-26.405-9.317-39.709 0.201-4.707 3.37-9.858 6.241-15.103 8.716-10.731 5.058-18.1 3.4-25.26-5.887-4.797-6.226-8.977-12.938-13.277-19.537-5.976-9.171-14.050-13.404-25.192-12.161-8.499 0.948-17.089 1.362-25.644 1.455-9.866 0.108-16.252-5.009-18.302-14.665-1.702-8.018-3.012-16.144-3.968-24.285-1.329-11.347-7.033-18.928-17.756-22.892-7.368-2.725-14.837-5.293-21.907-8.671-11.373-5.442-14.457-12.094-11.47-24.188 1.635-6.618 3.789-13.15 6.234-19.518 4.733-12.325 2.042-22.762-7.122-31.9-4.371-4.36-8.858-8.626-12.897-13.285-9.78-11.28-9.799-19.533-0.052-30.966 3.774-4.427 7.984-8.499 12.191-12.53 9.626-9.227 12.841-19.79 7.832-32.602-2.359-6.032-4.263-12.273-5.92-18.54-3.445-13.039-0.183-20.082 12.12-25.67 6.827-3.102 13.957-5.554 20.989-8.201 10.615-3.994 16.737-11.344 17.708-22.851 0.403-4.771 1.392-9.485 1.889-14.252 2.15-20.586 9.022-26.271 29.541-24.356 3.072 0.287 6.241-0.011 9.231 0.616 17.283 3.617 28.287-3.767 37.218-18.358 16.070-26.256 21.504-27.533 47.032-10.945 15.103 9.814 28.242 10.134 43.497 0.145 25.562-16.733 31.568-15.233 47.256 10.507 8.795 14.431 19.559 22.437 37.084 18.697 4.644-0.989 9.537-0.81 14.319-1.168 14.293-0.717 20.067 3.546 23.188 17.51 1.116 4.987 1.837 10.119 2.15 15.222 1.023 16.625 8.925 27.428 25.364 31.84 5.576 1.496 11.060 3.688 16.23 6.278 10.727 5.379 13.74 12.061 10.724 23.587-1.814 6.936-4.128 13.762-6.573 20.507-4.33 11.941-1.822 22.004 7.234 30.851 5.382 5.263 10.448 10.877 15.289 16.629zM689.058-2.921v-197.086c-23.143 11.945-46.289 21.65-67.189 35.087-20.53 13.065-37.697 13.438-58.6 0-19.783-12.691-41.433-22.023-63.083-32.475-1.493-0.747-2.613-1.493-4.106-2.239v196.713c5.226-4.479 10.078-7.092 13.065-11.198 5.599-6.719 9.705-14.931 15.304-21.65 9.332-11.198 19.41-13.438 33.221-7.465 5.599 2.613 11.571 5.599 16.797 9.332 11.198 8.585 21.65 7.839 32.848-0.373 4.479-3.359 9.701-5.972 15.304-8.585 14.557-6.719 26.129-3.733 35.834 8.959 5.226 7.092 8.959 14.931 14.931 21.277 3.355 3.733 9.328 5.972 15.673 9.705z" />
<glyph unicode="&#xe615;" glyph-name="chat-comment" horiz-adv-x="1073" d="M1073.211 659.22c-0.023 14.2-0.749 28.762-3.867 42.539-17.007 75.163-78.766 123.129-157.931 123.16-250.33 0.097-500.664 0.093-750.994 0.008-92.197-0.031-160.3-68.219-160.354-160.47-0.093-162.853-0.116-325.707 0.147-488.56 0.019-13.086 1.075-26.506 4.080-39.196 17.232-72.768 77.077-120.761 152.105-122.247 30.676-0.61 61.37-0.101 95.392-0.101-5.004-23.071-8.404-44.099-14.224-64.437-12.131-42.387-28.059-83.074-56.076-118.187-12.411-15.551-6.712-29.573 13.102-31.18 13.84-1.122 29.651-0.986 41.832 4.588 48.292 22.089 96.397 44.915 142.885 70.536 55.128 30.385 90.707 82.426 132.484 127.387 7.259 7.815 14.266 11.494 25.245 11.463 125.99-0.384 251.988-0.916 377.97 0.031 91.463 0.687 158.261 69.523 158.331 161.060 0.128 161.203 0.132 322.407-0.128 483.607z" />
<glyph unicode="&#xe616;" glyph-name="check" horiz-adv-x="1308" d="M1091.792 816.261c-199.102-189.28-396.068-376.532-593.96-564.66-13.099-12.455-33.818-11.927-46.262 1.183-69.767 73.479-138.705 146.097-208.473 219.581-12.444 13.11-33.556 14.075-47.162 2.175-61.569-53.851-122.5-107.145-184.908-161.73-13.605-11.9-14.783-32.395-2.622-45.767 138.902-152.763 276.528-304.115 415.026-456.432 12.161-13.371 32.733-14.227 45.963-1.913 276.931 257.706 552.053 513.727 827.752 770.282 13.23 12.314 14.363 33.36 2.534 47.031-54.892 63.433-108.681 125.585-162.744 188.053-11.829 13.665-32.046 14.646-45.145 2.197z" />
<glyph unicode="&#xe617;" glyph-name="clip" horiz-adv-x="984" d="M943.795 423.451c-10.418 0-19.821-4.085-26.896-10.691l-0.121 0.16-468.381-470.040c-40.736-40.736-95.004-63.145-152.764-63.145s-112.023 22.409-152.721 63.145c-84.261 84.261-84.261 221.332 0 305.523l452.427 452.337c28.66 28.667 66.836 44.47 107.494 44.47s78.838-15.802 107.544-44.47c28.628-28.617 42.972-62.59 41.603-98.293-1.377-35.16-17.734-69.365-47.31-98.929l-361.985-361.914c-16.548-16.548-38.532-25.71-61.927-25.788-44.431 0-67.706 28.035-67.706 55.633 0.109 23.365 9.24 45.336 25.788 61.935l312.087 310.979-0.351 0.351c5.818 6.926 9.474 15.732 9.474 25.487 0 21.932-17.765 39.71-39.71 39.71-9.755 0-18.561-3.657-25.476-9.481l-0.363 0.363-311.283-310.245c-35.312-35.269-49.746-69.676-49.937-118.79 0-38.411 14.191-72.977 39.952-97.31 26.615-25.137 63.578-38.423 106.912-38.423h0.898c45.106 0.203 87.332 17.969 118.829 49.937l361.2 361.118c91.499 91.499 93.896 221.886 5.736 310.085-43.76 43.721-102.004 67.827-163.97 67.827-62.006 0-120.237-24.106-163.927-67.823l-452.415-452.349c-115.325-115.325-115.325-302.995 0-418.363 55.797-55.754 130.074-86.466 209.142-86.466 79.107 0 153.388 30.712 209.181 86.466l468.393 470.032c0 0 10.297 10.145 10.297 27.247 0 21.948-17.777 39.714-39.714 39.714z" />
<glyph unicode="&#xe618;" glyph-name="code" horiz-adv-x="1165" d="M236.969 243.298l245.36-106.35c2.213-0.963 4.006 0.218 4.006 2.631v62.576c0 2.416-1.82 5.085-4.064 5.966l-168.411 66.313c-2.244 0.881-2.241 2.303 0.012 3.168l168.388 64.828c2.248 0.869 4.076 3.526 4.076 5.939v63.044c0 2.412-1.797 3.593-4.010 2.631l-245.36-106.307c-2.213-0.959-4.006-3.695-4.006-6.106v-52.226c0-2.412 1.797-5.148 4.010-6.106zM542.481 86.639c6.87 0 12.17 1.544 15.751 4.657 3.581 3.075 6.305 7.396 8.082 12.973 1.762 5.518 3.8 13.074 6.13 22.641l70.53 290.4c3.522 13.759 5.284 23.269 5.284 28.436 0 7.061-2.213 12.622-6.651 16.671-4.485 3.979-10.861 6.029-19.282 6.029-9.726 0-16.262-2.853-19.671-8.592-3.363-5.694-6.828-16.266-10.525-31.74l-70.296-290.345c-3.363-15.474-5.066-25.084-5.066-28.942 0-14.792 8.592-22.185 25.715-22.185zM682.476 136.5l245.364 106.794c2.213 0.963 4.006 3.699 4.006 6.11v51.716c0 2.412-1.797 5.144-4.014 6.099l-245.352 105.855c-2.217 0.955-4.010-0.226-4.010-2.639v-62.070c0-2.416 1.824-5.074 4.072-5.947l168.903-65.324c2.248-0.869 2.256-2.291 0.008-3.172l-168.918-66.317c-2.244-0.881-4.064-3.553-4.064-5.966v-62.522c0-2.404 1.793-3.581 4.006-2.619zM1094.903 824.993h-1024.997c-38.63 0-69.906-31.277-69.906-69.902v-885.267c0-38.556 31.277-69.832 69.906-69.832h1024.997c38.63 0 69.906 31.277 69.906 69.832v885.267c-0.004 38.626-31.281 69.902-69.906 69.902zM1094.903-130.176h-1024.997v768.785h1024.997v-768.785z" />
<glyph unicode="&#xe619;" glyph-name="computer" horiz-adv-x="1196" d="M1131.352 823.183v1.81h-1066.97v-1.81c-34.509-2.45-60.292-30.6-64.382-64.84v-719.842c0-13.827 3.541-25.473 9.396-35.986 13.467-24.337 33.339-36.671 60.837-36.671h385.132v-83.416h-120.398c-7.237 0-13.108-6.026-13.108-13.456v-55.527c0-7.434 5.87-13.456 13.108-13.456h526.348c7.241 0 13.108 6.022 13.108 13.456v55.527c0 7.43-5.867 13.456-13.108 13.456h-120.928v83.416h385.053c27.563 0 47.62 12.339 60.916 36.671 6.026 11.025 9.926 22.848 9.926 35.986v719.842c-4.075 34.239-31.578 62.39-64.931 64.84zM1131.352 752.336v-713.836c0-4.2-1.765-6.010-5.916-6.010h-1055.203c-4.086 0-5.851 1.81-5.851 6.010v719.842h1066.97v-6.007z" />
<glyph unicode="&#xe61a;" glyph-name="copy" horiz-adv-x="727" d="M701.478 684.415c-18.102 20.798-35.819 41.596-53.921 62.394-14.25 16.176-28.115 32.737-42.366 48.914s-42.751 29.272-63.934 29.272h-448.31c-21.183 0-38.515-17.332-38.515-38.515v-36.33h-15.919c-21.183 0-38.515-17.332-38.515-38.515v-873.127c0-21.183 17.332-38.515 38.515-38.515h595.051c21.183 0 38.515 17.332 38.515 38.515v36.33h15.919c21.183 0 38.515 17.332 38.515 38.515v703.277c0 21.183-11.169 51.613-25.034 67.786zM172.546 314.933h327.375c21.183 0 38.515-16.947 38.515-38.129 0-20.798-17.332-38.129-38.515-38.129h-327.375c-21.568 0-38.515 17.332-38.515 38.129 0 21.183 16.947 38.129 38.515 38.129zM134.031 428.166c0 21.183 17.332 38.515 38.515 38.515h326.989c21.183 0 38.515-17.332 38.515-38.515s-17.332-38.129-38.515-38.129h-326.989c-21.183 0-38.515 16.947-38.515 38.129zM172.546 158.178h326.989c21.183 0 38.515-16.947 38.515-37.359 0-20.798-17.332-37.359-38.515-37.359h-326.989c-21.183 0-38.515 16.561-38.515 37.359 0 20.413 17.332 37.359 38.515 37.359zM691.464-40.815c0-13.341-8.092-24.649-19.384-30.308v612.907c0 21.183-11.169 51.609-25.034 67.786-18.102 20.798-35.819 41.596-53.921 62.394-14.25 16.176-28.115 32.737-42.366 48.914s-42.751 29.268-63.934 29.268h-395.029c4.202 14.185 16.842 24.78 32.349 24.78h401.322c18.872 0 44.677-11.554 57.387-26.19 12.709-14.25 25.034-29.272 37.744-43.522 16.176-18.872 31.967-37.359 48.143-55.847 12.709-14.635 22.723-41.981 22.723-60.853v-629.329z" />
<glyph unicode="&#xe61b;" glyph-name="copyright" horiz-adv-x="1022" d="M511.1-200.008c-76.234 0-145.797 13.118-208.745 39.238-62.893 26.232-116.592 61.997-161.154 107.51-44.563 45.405-79.204 99.439-103.979 161.882-24.835 62.447-37.222 130.383-37.222 203.813 0 72.534 12.387 140.358 37.218 203.251 24.774 62.893 59.415 117.042 103.979 162.555 44.563 45.405 98.262 81.277 161.154 107.398 62.95 26.236 132.514 39.353 208.749 39.353 76.176 0 145.797-12.891 208.687-38.677 62.893-25.674 116.65-61.435 161.154-107.398 44.563-45.963 79.261-100.112 104.036-162.555s37.165-130.379 37.165-203.924c0-73.43-12.387-141.366-37.165-203.813-24.774-62.443-59.473-116.481-104.036-161.882-44.504-45.516-98.262-81.277-161.154-107.51-62.893-26.125-132.51-39.242-208.687-39.242zM511.1-97.988c62.443 0 118.443 10.536 168.048 31.614 49.605 21.189 91.591 50.114 126.067 86.771 34.419 36.773 60.819 80.158 79.204 130.268 18.331 49.998 27.521 103.924 27.521 161.77s-9.194 111.883-27.521 161.882c-18.384 50.114-44.786 93.499-79.204 130.156-34.472 36.773-76.458 65.693-126.067 86.883-49.605 21.078-105.605 31.614-168.048 31.614-62.501 0-118.497-10.536-168.106-31.614-49.552-21.185-91.594-50.106-126.009-86.879-34.472-36.657-60.873-80.042-79.204-130.156-18.384-49.998-27.579-104.036-27.579-161.882s9.194-111.772 27.579-161.77c18.331-50.114 44.732-93.499 79.204-130.268 34.419-36.661 76.458-65.582 126.009-86.771 49.605-21.081 105.605-31.618 168.106-31.618zM652.971 180.263c9.194-14.687 16.311-33.072 21.358-55.157 5.043-21.973 7.566-44.955 7.566-68.833-26.624-10.091-51.625-16.814-75.057-19.953-23.432-3.25-48.486-4.82-75.111-4.82-43.162 0-81.277 7.513-114.296 22.647-33.072 15.245-60.65 35.427-82.678 60.65s-38.788 55.157-50.279 89.575-17.207 70.964-17.207 109.529c0 37.558 5.717 73.653 17.207 108.072s28.252 64.797 50.279 90.918c22.028 26.232 49.102 47.086 81.277 62.67 32.117 15.695 68.89 23.432 110.203 23.432 31.221 0 57.177-1.793 77.858-5.493 20.627-3.701 44.282-10.536 70.906-20.627 0-18.384-1.851-39.015-5.493-61.997-3.701-22.981-10.144-43.609-19.281-61.997-22.028 7.286-40.415 12.106-55.099 14.46-14.687 2.239-31.221 3.47-49.609 3.47-40.415 0-71.637-13.118-93.664-39.35-22.028-26.121-33.072-64.013-33.072-113.565 0-52.352 11.713-90.918 35.145-115.807 23.432-24.774 53.922-37.107 91.591-37.107 21.131 0 38.566 0.896 52.352 2.689 13.791 1.908 32.121 7.401 55.103 16.595z" />
<glyph unicode="&#xe61c;" glyph-name="credit-card" horiz-adv-x="1517" d="M1517.375 699.432c0 69.262-56.301 125.562-125.641 125.562h-1266.172c-69.262 0-125.562-56.301-125.562-125.562v-70.355h1517.375v70.355zM0.087 418.012v-492.343c0-69.341 56.151-125.677 125.487-125.677h1266.193c69.341 0 125.677 56.336 125.677 125.677v492.343h-1517.356zM466.054-21.007c0-5.274-4.335-9.419-9.419-9.419h-270.196c-5.089 0-9.419 4.145-9.419 9.419v87.994c0 5.089 4.335 9.419 9.419 9.419h270.196c5.089 0 9.419-4.335 9.419-9.419v-87.994z" />
<glyph unicode="&#xe61d;" glyph-name="document" horiz-adv-x="725" d="M697.82 673.46c-19.339 22.401-38.557 44.799-58.020 67.2-15.178 17.749-30.479 35.375-45.901 53-15.058 17.258-45.781 31.334-68.792 31.334h-483.612c-22.892 0-41.496-18.604-41.496-41.616v-941.893c0-22.888 18.604-41.496 41.496-41.496h641.758c23.012 0 41.616 18.604 41.616 41.496v758.779c0 23.008-12.119 55.691-27.049 73.196zM471.985 428.777h56.183v-84.214h-56.183v84.214zM392.546 587.901h55.816v-243.581h-55.816v243.581zM225.712 575.171c43.209 0.491 86.051-44.311 85.927-86.051h-85.927v86.051zM225.101 469.781c27.664 0.124 55.324 0.124 82.988 0 1.222 0 2.447-0.367 4.528-0.859-5.019-37.455-23.99-64.261-58.020-79.806-32.927-15.054-74.666-9.056-100.737 14.69 21.666 21.666 42.842 42.718 64.141 63.773 1.59 1.465 4.649 2.2 7.1 2.2zM123.873 515.682c13.588 33.785 48.963 59.976 82.010 59.976 0-30.356 0.124-59.976-0.124-89.601 0-2.204-1.226-5.143-2.939-6.733-20.564-20.808-41.372-41.496-62.061-62.18-23.008 21.91-30.232 65.119-16.886 98.537zM117.14 260.836h490.225v-44.187h-490.225v44.187zM607.242 37.085h-489.734v44.555h489.734v-44.555zM607.609 132.067h-490.102v44.311h490.102v-44.311zM607.609 344.316h-55.939v192.298h55.939v-192.298z" />
<glyph unicode="&#xe61e;" glyph-name="download" horiz-adv-x="1149" d="M751.925-3.317c-12.68-12.313-33.228-12.313-45.909 0l-387.226 376.157c-12.669 12.313-12.669 32.272 0 44.585l76.982 74.781c12.68 12.313 33.228 12.313 45.909 0l196.653-191.048v492.311c0 17.409 14.529 31.525 32.452 31.525h129.825c17.914 0 32.444-14.116 32.444-31.525v-479.243l183.219 177.985c12.669 12.313 33.217 12.313 45.898 0l76.982-74.781c12.68-12.313 12.68-32.272 0-44.585l-387.226-376.161zM0 62.605v-262.612h1148.574v262.612h-246.988l-147.333-143.129c-13.96-13.557-36.678-13.557-50.625 0l-147.344 143.129h-556.282zM263.865-68.859c0 26.165 21.735 47.287 48.677 47.287s48.677-21.123 48.677-47.287c0-26.169-21.735-47.291-48.677-47.291s-48.677 21.123-48.677 47.291zM90.558-68.859c0 26.165 22.057 47.287 48.677 47.287 26.938 0 48.677-21.123 48.677-47.287 0-26.169-21.735-47.291-48.677-47.291-26.62 0-48.677 21.123-48.677 47.291z" />
<glyph unicode="&#xe61f;" glyph-name="ebook" horiz-adv-x="770" d="M729.209 824.993h-688.9c-22.266 0-40.309-18.57-40.309-41.473v-942.056c0-22.906 18.044-41.473 40.309-41.473h688.9c22.262 0 40.309 18.57 40.309 41.473v942.056c-0.004 22.902-18.052 41.473-40.309 41.473zM383.782-177.651c-12.5 0-22.63 10.422-22.63 23.295 0 12.849 10.13 23.283 22.63 23.283 12.496 0 22.626-10.434 22.626-23.283 0.004-12.868-10.126-23.295-22.626-23.295zM690.455-113.236h-616.666v851.459h346.432v-259.685c0-4.618 2.576-5.714 5.758-2.449l92.687 95.211c3.177 3.264 8.333 3.264 11.51 0l92.687-95.211c3.177-3.264 5.758-2.168 5.758 2.449v259.685h61.83v-851.459zM623.567 347.223h-477.62c-3.553 0-6.438-2.881-6.438-6.438v-38.849c0-3.553 2.881-6.438 6.438-6.438h477.62c3.553 0 6.438 2.881 6.438 6.438v38.849c0 3.553-2.881 6.438-6.438 6.438zM623.567 250.681h-477.62c-3.553 0-6.438-2.881-6.438-6.438v-38.849c0-3.553 2.881-6.438 6.438-6.438h477.62c3.553 0 6.438 2.881 6.438 6.438v38.849c0 3.553-2.881 6.438-6.438 6.438zM623.567 150.488h-477.62c-3.553 0-6.438-2.881-6.438-6.438v-38.849c0-3.553 2.881-6.438 6.438-6.438h477.62c3.553 0 6.438 2.881 6.438 6.438v38.849c0 3.557-2.881 6.438-6.438 6.438zM623.567 53.947h-477.62c-3.553 0-6.438-2.881-6.438-6.438v-38.849c0-3.557 2.881-6.438 6.438-6.438h477.62c3.553 0 6.438 2.881 6.438 6.438v38.849c0 3.557-2.881 6.438-6.438 6.438z" />
<glyph unicode="&#xe620;" glyph-name="edit" horiz-adv-x="1026" d="M1022.542 450.925c-1.416-1.138-2.525-2.051-3.534-3.060-51.971-51.923-104.095-103.694-155.554-156.121-4.722-4.807-7.243-13.804-7.277-20.869-0.471-94.073-0.315-188.154-0.315-282.232 0-2.915 0-5.827 0-8.827 0-4.874-7.543-8.82-16.852-8.82-217.617 0-433.887 0-650.176 0-9.309 0-16.849 7.547-16.849 16.856 0 217.105 0 433.379 0 650.358 0 9.309 4.132 16.863 9.224 16.863 3.182 0 6.197 0 9.213 0 93.546 0 187.101-0.256 280.644 0.445 8.256 0.063 18.462 4.335 24.378 10.118 49.883 48.767 98.988 98.327 148.285 147.695 1.814 1.818 3.534 3.728 5.322 5.764 2.856 3.26-2.366 5.897-11.675 5.897-207.966 0-414.209 0-620.517 0-9.309 0-16.856-7.543-16.856-16.852 0-330.861 0-660.542 0-991.288 0-9.309 7.543-16.86 16.852-16.86 331.795 0 662.193 0 992.471 0 9.309 0 16.852 7.554 16.852 16.86 0 206.783 0 412.595 0 620.172-0.004 9.313-1.621 15.521-3.635 13.901zM322.075 327.244c0-60.487 0-124.445 0-189.13 0-9.309 7.547-16.849 16.856-16.849 64.974 0 128.673 0 189.134 0 9.309 0 22.194 5.333 28.773 11.913 151.163 151.182 303.338 303.371 454.968 455.019 6.583 6.583 6.59 17.257 0.007 23.84-66.058 66.058-132.942 132.942-198.946 198.946-6.583 6.583-17.261 6.579-23.844-0.004-151.667-151.645-303.869-303.824-455.034-454.968-6.579-6.579-11.913-19.46-11.913-28.769z" />
<glyph unicode="&#xe621;" glyph-name="envelope" horiz-adv-x="1415" d="M726.72 181.203c-11.27-5.587-19.711-5.224-30.634 0.144-227.859 112.031-455.888 223.691-683.91 335.373-3.46 1.696-7.223 2.714-11.685 4.358 0-241.184 0-480.543 0-721.089 472.498 0 943.38 0 1414.381 0 0 240.493 0 479.717 0 720.431-4.809-2.063-8.596-3.48-12.216-5.264-225.368-111.19-450.776-222.307-675.936-333.951zM11.869 639.123c58.394-29.265 117.179-57.668 175.822-86.386 170.262-83.389 340.464-166.906 510.914-249.876 6.529-3.177 16.741-4.182 22.947-1.133 227.843 111.907 455.386 224.47 683.108 336.641 8.317 4.099 11.218 8.804 11.139 18.326-0.451 51.921-0.183 103.85-0.275 155.771-0.004 4.111-0.846 8.217-1.325 12.527-471.336 0-941.372 0-1412.993 0-0.502-3.388-1.077-5.451-1.081-7.518-0.064-54.112-0.407-108.228 0.423-162.325 0.088-5.527 6.122-13.417 11.322-16.028z" />
<glyph unicode="&#xe622;" glyph-name="error" d="M1025.001 4.363l-204.371-204.371-308.13 308.13-308.13-308.13-204.371 204.371 304.983 308.13-304.983 308.13 204.371 204.371 308.13-308.13 308.13 308.13 204.371-204.371-308.13-308.13z" />
<glyph unicode="&#xe623;" glyph-name="eye-view" horiz-adv-x="779" d="M398.46 507.147c113.788-1.817 211.203-35.127 292.055-105.564 28.663-24.971 51.202-54.18 70.328-85.583 1.256-2.062 0.821-5.988-0.539-8.182-64.022-103.534-161.469-165.277-290.281-184.347-127.097-18.813-241.472 9.542-340.625 84.558-36.851 27.879-65.366 62.229-88.292 100.325-1.28 2.126-1.214 6.024 0.098 8.152 63.833 103.65 161.458 164.144 289.941 185.025 7.938 1.289 15.931 2.505 23.959 3.104 15.166 1.131 30.376 1.783 43.354 2.512zM471.143 201.71c76.881 15.223 140.579 49.274 188.752 106.042 3.561 4.197 1.921 6.786-0.983 10.24-28.906 34.407-65.011 60.9-107.628 80.209-25.374 11.494-51.905 20.036-82.621 25.508 46.886-27.134 72.125-63.297 72.017-111.596-0.112-48.167-25.497-84.217-69.539-110.403zM330.616 201.742c-44.056 26.204-69.457 62.232-69.55 110.455-0.093 48.323 25.196 84.466 69.27 111.13-16.66-3.802-33.137-7.701-49.001-13.079-55.693-18.882-102.119-49.317-138.462-92.148-3.778-4.45-3.977-7.452 0.141-11.57 6.868-6.87 12.871-14.457 19.887-21.187 45.924-44.044 102.328-71.033 167.715-83.598zM351.897 332.439c18.507 0.086 33.247 13.26 33.338 29.798 0.092 16.566-15.313 30.721-33.589 30.867-18.185 0.147-33.736-14.033-33.63-30.662 0.112-17.037 14.854-30.094 33.881-30.006z" />
<glyph unicode="&#xe624;" glyph-name="facebook" horiz-adv-x="476" d="M476.343 493.080h-162.281v106.382c0 39.951 26.522 49.272 45.163 49.272 18.586 0 114.43 0 114.43 0v175.672l-157.658 0.589c-174.979 0-214.768-131.035-214.768-214.834v-117.079h-101.229v-180.926h101.225c0-232.322 0-512.162 0-512.162h212.834c0 0 0 282.626 0 512.162h143.644l18.641 180.926z" />
<glyph unicode="&#xe625;" glyph-name="favourite" horiz-adv-x="1076" d="M205.623-196.186c3.021 36.473 5.848 71.234 8.81 105.985 6.411 75.199 12.196 150.466 19.828 225.54 2.006 19.723-5.078 32.752-17.239 46.565-70.791 80.41-140.948 161.379-211.307 242.165-1.454 1.668-2.866 3.371-4.674 5.551-1.929 2.329-1.108 4.767 1.831 5.462 34.225 8.118 66.918 15.949 99.658 23.588 77.346 18.048 154.672 36.188 232.123 53.774 11.737 2.667 19.175 8.242 25.338 18.619 56.126 94.514 112.745 188.738 169.236 283.031 1.692 2.827 3.479 5.594 5.665 9.001 1.633 2.542 4.23 2.523 5.82-0.043 9.183-14.824 17.963-28.825 26.508-42.965 50.224-83.084 100.149-166.351 150.959-249.070 4.494-7.317 13.907-14.195 22.251-16.178 110.16-26.158 220.529-51.437 332.68-77.339 2.943-0.681 3.931-3.235 2.231-5.735-1.758-2.586-3.351-4.911-5.183-7.033-73.431-85.079-147.025-170.018-220.125-255.376-4.265-4.981-6.998-13.495-6.454-20.031 8.503-102.030 17.651-204.005 26.686-305.993 1.050-11.851 2.263-23.689 3.651-37.868 0.295-3.009-1.761-4.607-4.612-3.601-4.876 1.727-8.701 3.036-12.422 4.599-100.18 42.102-200.437 84.010-300.363 126.699-12.503 5.342-22.48 4.942-34.692-0.326-98.678-42.557-197.63-84.488-296.515-126.571-4.568-1.944-9.218-3.694-15.043-5.933-2.823-1.081-4.899 0.466-4.65 3.479z" />
<glyph unicode="&#xe626;" glyph-name="file" horiz-adv-x="704" d="M677.51 673.417c-18.696 22.389-37.393 44.893-56.197 67.282-14.784 17.687-29.673 35.263-44.566 52.951-14.673 17.349-44.566 31.344-66.85 31.344h-469.463c-22.281 0-40.434-18.696-40.434-41.647v-941.827c0-22.95 18.154-41.532 40.434-41.532h623.053c22.285 0 40.326 18.585 40.326 41.532v758.79c0 22.95-11.739 55.638-26.305 73.106z" />
<glyph unicode="&#xe627;" glyph-name="files" horiz-adv-x="1019" d="M809.843 321.602l6.315 40.32c2.228 14.532-6.924 26.393-20.362 26.393h-568.787c-13.439 0-22.59-11.861-20.362-26.393l6.315-40.32c2.228-13.765 14.37-24.857 27.367-24.857h542.148c12.996 0 25.138 11.091 27.367 24.857zM766.405 227.485h-510.007c-12.507 0-21.051-10.122-19.146-22.425l5.384-34.49c1.901-11.699 13.116-21.009 24.976-21.009h487.582c11.861 0 23.076 9.309 24.976 21.009l5.384 34.49c1.901 12.303-6.642 22.425-19.15 22.425zM1008.033 92.343c-8.662 10.118-21.171 15.828-34.448 15.828h-928.051c-13.116 0-25.788-5.869-34.49-15.828-8.662-9.96-12.469-23.237-10.564-36.353l37.322-255.998h943.676l37.16 255.998c1.905 13.116-1.901 26.393-10.606 36.353zM120.341 137.597l-48.090 320.202c0 39.384 32.103 71.327 71.489 71.327h728.645c39.512 0 71.45-31.938 71.45-71.327l-42.668-316.557h63.876l42.706 316.557c0 74.644-60.597 135.203-135.369 135.203h-728.641c-74.644 0-135.365-60.559-135.365-135.203l48.090-320.198h63.876zM163.332 644.085h664.445l11.537 49.953c1.135 5.061 0 10.444-3.317 14.574-3.159 3.926-8.059 6.315-13.277 6.315h-654.811c-5.345 0-10.241-2.386-13.6-6.638-3.321-4.129-4.41-9.636-3.156-14.855l12.18-49.348zM228.628 754.151h533.528l9.352 50.761c0.931 4.899-0.323 10.122-3.645 13.886-3.156 3.972-8.055 6.196-13.116 6.196h-519.32c-5.18 0-9.956-2.386-13.277-6.192-3.159-3.929-4.414-9.152-3.482-14.209l9.96-50.441z" />
<glyph unicode="&#xe628;" glyph-name="film" horiz-adv-x="913" d="M0 824.993v-1025.001h913.174v1025.001h-913.174zM684.822 746.054v-394.213h-456.47v394.213h456.47zM76.198 746.054h75.959v-78.697h-75.959v78.697zM76.198 588.417h75.959v-78.697h-75.959v78.697zM76.198 430.78h75.959v-78.943h-75.959v78.943zM76.198 273.144h75.959v-78.939h-75.959v78.939zM76.198 115.507h75.959v-78.943h-75.959v78.943zM76.198-121.069v78.693h75.959v-78.693h-75.959zM228.352-121.069v394.213h456.47v-394.213h-456.47zM837.214-121.069h-76.198v78.693h76.198v-78.693zM837.214 36.568h-76.198v78.943h76.198v-78.943zM837.214 194.205h-76.198v78.939h76.198v-78.939zM837.214 351.837h-76.198v78.943h76.198v-78.943zM837.214 509.72h-76.198v78.697h76.198v-78.697zM837.214 667.356h-76.198v78.697h76.198v-78.697z" />
<glyph unicode="&#xe629;" glyph-name="flag" horiz-adv-x="774" d="M772.113 343.31c-27.367 153.692-54.85 307.364-81.893 461.109-1.508 8.567-5.393 11.049-12.941 12.779-76.319 17.507-149.279 3.889-220.193-24.636-50.636-20.366-100.247-43.254-150.702-64.078-49.76-20.539-101.281-34.826-155.634-33.703-20.854 0.43-41.705 3.127-63.263 5.489l-8.547 47.963c-0.531 2.978-3.373 4.959-6.351 4.427l-68.071-12.129c-2.978-0.531-4.963-3.373-4.431-6.351l165.671-929.679c0.531-2.978 3.373-4.959 6.351-4.427l68.071 12.129c2.978 0.531 4.959 3.373 4.427 6.351l-71.33 400.298c70.314-14.537 138.296-4.366 204.201 21.827 54.487 21.654 107.89 46.021 162.178 68.191 52.918 21.616 107.59 36.408 165.46 33.264 22.624-1.231 45.105-5.070 68.152-7.775-0.342 2.709-0.608 5.851-1.154 8.948z" />
<glyph unicode="&#xe62a;" glyph-name="folder" horiz-adv-x="1390" d="M1033.036 501.691h286.572v112.103c0.382 48.208-39.026 87.617-87.617 87.617h-326.363l-27.548 52.8c-22.574 43.617-67.721 70.782-116.695 70.782h-604.135c-48.59 0-87.617-39.026-87.617-87.617v-235.685h963.402zM1033.036 442.388h-1033.036l69.634-559.369c0-45.913 39.026-83.025 87.617-83.025h1074.74c48.208 0 87.617 37.113 87.617 83.025l70.4 559.369h-356.972z" />
<glyph unicode="&#xe62b;" glyph-name="gear" horiz-adv-x="1040" d="M1039.538 421.527c-28.205-16.171-54.335-31.148-80.462-46.133-12.738-7.307-25.774-14.162-38.011-22.219-3.617-2.38-6.852-8.080-7.027-12.39-0.754-18.364 0.099-36.786-0.482-55.162-0.229-7.23 1.998-11.173 8.348-14.724 34.784-19.455 69.313-39.362 103.897-59.162 3.931-2.25 7.694-4.792 13.852-8.65-10.848-30.708-21.411-61.37-32.794-91.731-1.19-3.177-7.387-6.76-10.947-6.461-38.949 3.253-77.886 6.81-116.712 11.272-12.799 1.469-21.679 0.497-28.817-12.416-7.398-13.392-18.112-25.058-27.99-36.981-4.785-5.776-5.879-10.242-2.484-17.599 18.192-39.396 35.604-79.153 54.565-121.662-27.902-18.947-55.789-38.126-84.11-56.651-2.338-1.531-8.677 0.149-11.375 2.426-31.432 26.509-62.652 53.268-93.575 80.362-5.73 5.022-10.063 6.292-17.668 3.441-16.822-6.311-34.141-11.467-51.545-16.015-8.053-2.101-11.459-5.879-13.201-13.86-9.136-41.9-18.888-83.67-28.821-127.219-36.158 0-72.106 0-108.659 0-9.849 43.14-19.708 84.845-28.66 126.741-1.876 8.773-5.856 12.214-14.124 14.418-16.987 4.528-33.881 9.668-50.313 15.873-7.433 2.806-11.938 2.040-17.778-3.077-30.915-27.098-62.121-53.88-93.586-80.343-2.917-2.453-9.829-4.141-12.416-2.449-28.002 18.315-55.506 37.375-83.463 56.452 18.487 41.211 35.592 80.117 53.485 118.657 4.287 9.236 3.387 15.291-3.356 23.018-10.701 12.26-20.309 25.587-29.204 39.22-4.589 7.031-9.469 9.163-17.457 8.336-39.722-4.099-79.509-7.593-119.219-11.835-9.343-0.999-15.486-0.44-18.911 10.177-9.454 29.285-20.011 58.22-30.299 87.788 5.592 3.595 9.266 6.193 13.155 8.416 34.586 19.799 69.113 39.692 103.897 59.139 6.714 3.755 9.228 7.885 8.888 15.708-0.758 17.526-0.747 35.132-0.004 52.662 0.329 7.766-2.029 11.988-8.785 15.773-35.136 19.681-70.005 39.837-104.958 59.839-3.249 1.86-6.434 3.835-12.409 7.406 11.012 31.144 21.874 62.522 33.506 93.621 0.999 2.668 7.234 5.163 10.786 4.857 38.945-3.368 77.898-6.829 116.72-11.356 13.037-1.519 21.518 0.336 28.515 12.903 7.245 13.010 17.564 24.443 27.321 35.91 5.236 6.155 6.319 11.016 2.771 18.712-18.143 39.358-35.573 79.034-54.374 121.114 27.818 18.985 55.323 38.045 83.317 56.364 2.603 1.704 9.523 0.099 12.42-2.338 31.47-26.46 62.687-53.229 93.582-80.351 5.856-5.144 10.342-5.921 17.763-3.169 16.864 6.25 34.183 11.394 51.545 16.168 7.299 2.006 11.046 5.125 12.718 12.826 9.11 41.976 18.827 83.827 28.813 127.816 35.956 0 72.233 0 108.831 0 9.868-43.247 19.635-85.009 28.745-126.917 1.746-8.034 5.232-11.7 13.197-13.809 17.404-4.609 34.666-9.925 51.595-16.026 6.844-2.465 11.234-2.266 16.837 2.641 30.926 27.079 62.339 53.612 93.284 80.669 5.114 4.47 8.861 6.388 15.107 2.040 26.789-18.659 53.831-36.951 81.477-55.855-13.327-29.816-25.702-57.497-38.072-85.181-5.614-12.569-10.817-25.346-17.002-37.632-3.158-6.273-1.834-10.414 2.224-15.532 11.173-14.093 22.315-28.27 32.389-43.132 4.42-6.522 8.903-8.657 16.428-7.889 39.73 4.053 79.536 7.368 119.211 11.877 10.311 1.171 16.282-0.191 19.754-10.825 9.549-29.246 19.895-58.228 30.126-87.895zM692.777 307.605c2.638 91.673-72.738 170.941-164.683 173.18-99.355 2.422-178.24-69.164-181.137-164.377-2.752-90.406 73.032-169.521 164.713-171.944 98.501-2.607 178.408 69.374 181.107 163.14z" />
<glyph unicode="&#xe62c;" glyph-name="gears" horiz-adv-x="1085" d="M638.449 128.22c-4.396 2.474-5.941 5.222-5.783 10.264 0.405 12.808-0.189 25.649 0.332 38.45 0.123 3.003 2.362 6.975 4.868 8.634 8.476 5.616 17.505 10.395 26.325 15.486 18.092 10.445 36.187 20.882 55.722 32.153-7.087 20.678-14.251 40.881-20.863 61.262-2.404 7.411-6.538 8.361-13.679 7.546-27.475-3.142-55.043-5.454-82.557-8.28-5.211-0.537-8.314 0.953-11.375 5.5-6.979 10.36-14.695 20.242-22.43 30.065-2.81 3.566-3.729 6.454-1.541 10.828 4.284 8.565 7.882 17.47 11.772 26.229 8.565 19.296 17.138 38.592 26.368 59.374-19.146 13.174-37.874 25.927-56.425 38.932-4.327 3.034-6.921 1.695-10.46-1.42-21.431-18.859-43.185-37.349-64.604-56.224-3.879-3.42-6.921-3.558-11.661-1.841-11.722 4.254-23.677 7.956-35.732 11.171-5.515 1.47-7.929 4.026-9.14 9.626-6.307 29.209-13.074 58.32-19.905 88.462-25.345 0-50.469 0-75.37 0-6.917-30.66-13.645-59.829-19.959-89.088-1.158-5.369-3.752-7.542-8.809-8.94-12.024-3.327-24.016-6.913-35.697-11.271-5.141-1.919-8.245-1.374-12.302 2.208-21.396 18.894-43.012 37.554-64.808 55.997-2.007 1.699-6.798 2.818-8.6 1.629-19.389-12.768-38.434-26.054-57.698-39.286 13.020-29.328 25.094-56.985 37.658-84.417 2.458-5.365 1.706-8.751-1.919-13.043-6.755-7.994-13.904-15.961-18.921-25.028-4.845-8.759-10.719-10.052-19.747-8.994-26.884 3.157-53.862 5.569-80.831 7.917-2.458 0.212-6.778-1.524-7.469-3.385-8.056-21.674-15.582-43.545-23.206-65.253 4.138-2.489 6.342-3.868 8.596-5.165 24.206-13.943 48.354-27.988 72.687-41.711 4.679-2.637 6.311-5.581 6.083-10.993-0.518-12.217-0.525-24.488 0-36.705 0.235-5.454-1.501-8.334-6.153-10.951-24.090-13.556-48.003-27.421-71.953-41.22-2.695-1.552-5.238-3.362-9.11-5.867 7.126-20.608 14.436-40.777 20.982-61.188 2.374-7.403 6.631-7.79 13.101-7.095 27.499 2.957 55.051 5.392 82.561 8.249 5.531 0.576 8.913-0.911 12.090-5.813 6.16-9.503 12.816-18.794 20.226-27.337 4.671-5.384 5.296-9.607 2.323-16.046-12.394-26.861-24.237-53.978-37.040-82.704 19.362-13.294 38.407-26.58 57.799-39.348 1.791-1.177 6.577-0.004 8.6 1.706 21.789 18.447 43.401 37.109 64.812 56.001 4.045 3.57 7.168 4.099 12.313 2.146 11.379-4.323 23.079-7.905 34.844-11.063 5.725-1.537 8.48-3.933 9.782-10.048 6.199-29.201 13.028-58.27 19.848-88.339 25.314 0 50.21 0 75.249 0 6.879 30.355 13.629 59.466 19.959 88.671 1.204 5.562 3.566 8.195 9.14 9.657 12.051 3.169 24.047 6.763 35.697 11.159 5.265 1.988 8.264 1.104 12.236-2.397 21.415-18.882 43.035-37.535 64.805-56.012 1.868-1.587 6.257-2.756 7.878-1.691 19.612 12.912 38.924 26.283 58.251 39.488-13.136 29.629-25.191 57.34-37.789 84.8-2.35 5.126-1.595 8.241 1.722 12.267 6.84 8.31 14.259 16.44 19.385 25.777 4.941 9.002 11.090 9.676 19.956 8.654 26.888-3.107 53.855-5.589 80.828-7.855 2.466-0.208 6.755 2.289 7.581 4.504 7.882 21.161 15.197 42.533 22.708 63.936-4.261 2.691-6.867 4.462-9.592 6.029-23.955 13.803-47.868 27.68-71.957 41.24zM354.348 40.094c-63.492 1.691-115.976 56.835-114.069 119.848 2.007 66.364 56.637 116.259 125.445 114.571 63.674-1.56 115.872-56.81 114.046-120.709-1.868-65.357-57.205-115.529-125.421-113.711zM786.405 417.107c4.038-19.026 8.488-37.963 12.931-57.552 16.494 0 32.713 0 49.025 0 4.481 19.774 8.882 38.743 13.005 57.768 0.784 3.625 2.323 5.338 5.956 6.292 7.851 2.065 15.667 4.404 23.257 7.272 3.431 1.297 5.384 0.718 7.971-1.564 13.95-12.302 28.038-24.453 42.216-36.492 1.216-1.034 4.076-1.795 5.134-1.1 12.776 8.411 25.36 17.123 37.947 25.723-8.557 19.304-16.413 37.356-24.619 55.244-1.532 3.339-1.038 5.369 1.119 7.99 4.454 5.411 9.291 10.711 12.629 16.79 3.219 5.864 7.226 6.307 13.001 5.64 17.516-2.027 35.083-3.64 52.657-5.118 1.606-0.135 4.4 1.489 4.941 2.934 5.134 13.787 9.901 27.707 14.795 41.653-2.779 1.753-4.473 2.907-6.249 3.93-15.606 8.99-31.184 18.030-46.876 26.865-2.864 1.614-3.872 3.404-3.768 6.686 0.262 8.345-0.123 16.709 0.216 25.047 0.081 1.957 1.541 4.547 3.169 5.623 5.523 3.66 11.402 6.771 17.15 10.090 11.789 6.805 23.577 13.606 36.302 20.948-4.617 13.471-9.283 26.634-13.591 39.908-1.568 4.829-4.261 5.446-8.913 4.914-17.898-2.046-35.859-3.551-53.785-5.392-3.393-0.347-5.415 0.622-7.411 3.582-4.547 6.751-9.572 13.186-14.614 19.585-1.83 2.323-2.428 4.203-1.004 7.052 2.791 5.577 5.138 11.379 7.669 17.088 5.581 12.572 11.167 25.14 17.177 38.681-12.475 8.584-24.673 16.891-36.762 25.364-2.818 1.976-4.508 1.104-6.817-0.926-13.962-12.286-28.135-24.333-42.089-36.631-2.528-2.227-4.508-2.32-7.596-1.2-7.638 2.772-15.424 5.184-23.28 7.276-3.594 0.957-5.165 2.621-5.952 6.272-4.107 19.030-8.515 37.993-12.97 57.629-16.513 0-32.879 0-49.103 0-4.504-19.976-8.89-38.978-13.005-58.039-0.757-3.497-2.443-4.914-5.736-5.825-7.832-2.169-15.648-4.504-23.257-7.341-3.346-1.25-5.373-0.896-8.013 1.439-13.939 12.317-28.023 24.468-42.22 36.485-1.308 1.108-4.431 1.834-5.604 1.061-12.629-8.318-25.039-16.977-37.589-25.595 8.484-19.107 16.347-37.125 24.534-54.997 1.602-3.493 1.112-5.702-1.25-8.495-4.4-5.207-9.059-10.399-12.325-16.305-3.157-5.705-6.983-6.55-12.866-5.86-17.516 2.057-35.087 3.629-52.661 5.157-1.602 0.139-4.415-0.992-4.868-2.204-5.246-14.12-10.148-28.371-15.116-42.514 2.695-1.622 4.134-2.52 5.6-3.362 15.768-9.083 31.501-18.235 47.354-27.175 3.046-1.718 4.111-3.637 3.96-7.16-0.335-7.959-0.339-15.954 0.004-23.912 0.154-3.555-0.98-5.427-4.011-7.133-15.694-8.832-31.274-17.863-46.876-26.854-1.757-1.011-3.412-2.188-5.937-3.822 4.644-13.425 9.403-26.564 13.672-39.862 1.548-4.821 4.319-5.076 8.534-4.621 17.914 1.926 35.867 3.512 53.789 5.373 3.606 0.374 5.806-0.595 7.878-3.787 4.014-6.191 8.349-12.244 13.174-17.809 3.042-3.508 3.45-6.261 1.516-10.453-8.075-17.501-15.791-35.168-24.133-53.882 12.61-8.661 25.020-17.316 37.654-25.634 1.166-0.768 4.284 0 5.6 1.112 14.197 12.020 28.275 24.179 42.224 36.485 2.637 2.323 4.667 2.671 8.021 1.397 7.415-2.818 15.035-5.153 22.7-7.207 3.733-0.988 5.527-2.551 6.373-6.535zM745.841 594.052c1.308 43.235 36.897 75.74 81.723 74.64 41.483-1.015 75.49-37.009 74.301-78.639-1.216-42.58-37.268-75.266-81.708-74.080-41.363 1.104-75.555 37.028-74.316 78.079zM1080.36 111.916c-10.882 6.268-21.739 12.572-32.679 18.728-1.996 1.123-2.698 2.374-2.625 4.659 0.181 5.817-0.085 11.649 0.15 17.462 0.054 1.362 1.073 3.169 2.212 3.922 3.849 2.551 7.948 4.721 11.955 7.033 8.218 4.744 16.436 9.484 25.306 14.602-3.219 9.391-6.473 18.566-9.476 27.822-1.092 3.366-2.968 3.798-6.214 3.427-12.479-1.428-25.001-2.478-37.496-3.76-2.366-0.243-3.779 0.432-5.168 2.497-3.169 4.706-6.674 9.194-10.186 13.656-1.277 1.622-1.695 2.93-0.699 4.918 1.946 3.891 3.578 7.932 5.346 11.912 3.891 8.763 7.786 17.528 11.974 26.965-8.696 5.983-17.204 11.777-25.626 17.682-1.965 1.378-3.142 0.772-4.752-0.645-9.735-8.565-19.612-16.965-29.34-25.538-1.764-1.552-3.142-1.618-5.296-0.838-5.327 1.93-10.754 3.613-16.227 5.072-2.505 0.668-3.602 1.83-4.149 4.369-2.864 13.267-5.937 26.487-9.040 40.178-11.51 0-22.92 0-34.23 0-3.142-13.927-6.199-27.175-9.067-40.461-0.525-2.439-1.706-3.423-3.999-4.061-5.462-1.513-10.909-3.138-16.212-5.118-2.335-0.872-3.745-0.626-5.585 1.004-9.719 8.584-19.535 17.061-29.432 25.437-0.911 0.772-3.088 1.277-3.906 0.741-8.805-5.798-17.455-11.835-26.206-17.844 5.914-13.321 11.398-25.881 17.104-38.341 1.115-2.435 0.776-3.976-0.872-5.921-3.069-3.633-6.315-7.249-8.592-11.367-2.2-3.98-4.868-4.566-8.967-4.084-12.209 1.432-24.461 2.528-36.712 3.594-1.115 0.096-3.076-0.691-3.393-1.537-3.66-9.843-7.075-19.778-10.537-29.637 1.88-1.131 2.88-1.757 3.903-2.347 10.993-6.334 21.959-12.71 33.010-18.945 2.123-1.196 2.864-2.532 2.764-4.991-0.231-5.55-0.235-11.121 0.004-16.671 0.108-2.478-0.684-3.783-2.795-4.972-10.939-6.157-21.801-12.452-32.679-18.721-1.223-0.707-2.377-1.528-4.138-2.664 3.234-9.36 6.554-18.52 9.53-27.792 1.077-3.362 3.011-3.539 5.948-3.223 12.491 1.343 25.004 2.447 37.496 3.748 2.512 0.262 4.049-0.413 5.492-2.641 2.799-4.315 5.821-8.534 9.187-12.417 2.123-2.447 2.404-4.361 1.058-7.287-5.627-12.201-11.009-24.515-16.821-37.562 8.793-6.037 17.443-12.070 26.252-17.867 0.815-0.537 2.988 0 3.906 0.776 9.897 8.376 19.713 16.856 29.436 25.433 1.838 1.622 3.254 1.865 5.593 0.977 5.168-1.965 10.483-3.59 15.825-5.026 2.602-0.699 3.852-1.787 4.442-4.562 2.818-13.263 5.918-26.464 9.013-40.12 11.499 0 22.804 0 34.176 0 3.123 13.783 6.191 27.008 9.063 40.271 0.549 2.528 1.618 3.721 4.153 4.388 5.473 1.439 10.924 3.073 16.212 5.068 2.389 0.903 3.756 0.501 5.554-1.088 9.727-8.576 19.547-17.046 29.432-25.441 0.849-0.722 2.841-1.25 3.578-0.768 8.909 5.864 17.678 11.935 26.456 17.934-5.964 13.456-11.441 26.039-17.162 38.515-1.069 2.327-0.726 3.745 0.78 5.569 3.107 3.775 6.477 7.465 8.805 11.707 2.246 4.088 5.037 4.396 9.063 3.93 12.213-1.412 24.461-2.539 36.708-3.566 1.119-0.093 3.069 1.038 3.443 2.046 3.578 9.611 6.902 19.315 10.314 29.038-1.946 1.22-3.13 2.027-4.365 2.737zM918.651 90.62c-28.838 0.768-52.673 25.811-51.809 54.429 0.911 30.138 25.723 52.801 56.973 52.036 28.919-0.711 52.626-25.8 51.797-54.823-0.849-29.679-25.981-52.464-56.962-51.642z" />
<glyph unicode="&#xe62d;" glyph-name="gift" horiz-adv-x="1062" d="M796.351 626.114c91.313 0 132.445 44.371 132.445 99.444 0 54.735-41.133 99.436-132.445 99.436-85.923 0-153.595-38.563-199.29-83.264-20.069 11.694-43.048 19.16-68.342 19.16-23.969 0-46.028-6.804-65.435-17.832-45.703 44.039-113.042 81.936-197.97 81.936-91.645 0-132.449-44.701-132.449-99.44 0-55.068 40.804-99.444 132.453-99.444h220.38v-826.118h90.28v826.122h220.373zM796.351 758.563c30.107 0 66.019-5.813 66.019-33.010 0-27.534-35.908-33.424-66.019-33.424h-151.025l-1.246 2.988c33.672 32.677 84.843 63.446 152.271 63.446zM412.108 692.129h-146.795c-30.107 0-66.434 5.894-66.434 33.424 0 27.198 36.326 33.010 66.434 33.010 66.101 0 116.026-29.442 149.694-61.21l-2.899-5.224zM0 529.909v-132.864h464.607v199.298h-398.174c-36.659 0-66.434-29.86-66.434-66.434zM66.434-133.578c0-36.574 29.775-66.43 66.43-66.43h331.743v531.041h-398.174v-464.611zM995.23 596.343h-395.271v-199.298h461.705v132.864c0 36.574-29.86 66.434-66.434 66.434zM599.959-200.008h328.837c36.659 0 66.434 29.856 66.434 66.43v464.611h-395.271v-531.041z" />
<glyph unicode="&#xe62e;" glyph-name="globe" horiz-adv-x="918" d="M918.319 401.486c0-16.609 0-33.219 0-49.829-1.72-11.67-3.219-23.378-5.158-35.012-37.243-226.68-243.948-375.947-469.092-334.35-155.961 28.829-262.643 122.157-310.423 272.814-48.438 152.742-14.487 292.461 98.779 406.203 207.803 208.717 559.311 128.816 661.164-147.547 13.427-36.402 18.622-74.378 24.731-112.28zM234.108 585.106c20.012 0.073 19.976 0.073 20.268-19.536 0.292-18.877-1.353-37.865 7.939-55.645 9.585-18.366 18.402-37.133 26.89-56.048 5.451-12.183 13.28-19.098 27.293-17.743 12.585 1.244 22.354-4.061 27.329-15.585 18.256-42.036 50.597-70.317 88.352-94.243 14.964-9.475 29.085-17.634 47.523-15.951 13.463 1.244 19.061-5.414 18.439-19.28-0.842-18.952 0.073-37.939-0.292-56.927-0.256-12.475 4.61-19.427 17.67-18.548 12.329 0.842 18.731-3.329 18.914-16.903 0.146-13.28-4.061-20.451-18.256-19.573-13.903 0.878-18.695-6.256-18.402-19.609 0.586-25.5 0.037-51 0.183-76.499 0.365-55.645-6.805-48.036 49.719-48.511 7.5-0.073 17.378-1.829 18.658 8.634 1.463 11.854-8.781 9.951-16.207 10.427-3.512 0.219-7.646-0.073-8.708 4.28-1.024 4.061 2.524 6.292 5.085 8.67 9.073 8.487 17.964 17.268 27.366 25.39 45.036 38.999 86.999 80.011 106.389 139.023 8.524 25.975 6.402 36.622-17.414 49.061-5.781 3-11.854 5.524-17.341 9-48.658 31.133-100.389 46.719-159.511 42.036-35.707-2.817-60.182 26.743-77.414 52.353-20.012 29.744 0.659 56.085 35.707 52.866 10.244-0.951 15.073-5.597 15.073-15.695 0-10.682 0.073-21.366 0.11-32.012 0.037-9.073 3.915-15.256 13.573-14.854 8.67 0.365 11.927 6.366 11.854 14.634-0.11 14.232 1.463 28.646-0.292 42.658-3.256 25.756 6.915 42.951 28.683 55.682 10.024 5.89 19.646 10.39 31.463 10.061 14.816-0.402 29.634-0.183 44.487-0.037 6.366 0.073 15.11-1.061 15.475 7.573 0.439 10.207-9.219 8.487-15.951 9.293-2.341 0.292-4.756 0.256-7.098 0.11-12.11-0.659-17.378 5.451-17.268 17.122 0.073 5.927-0.073 11.854-0.073 17.78-0.037 25.207 0 25.427-24.402 29.121-8.634 1.317-10.756 4.28-4.536 10.976 6.439 6.951 13.061 13.756 19.646 20.597 5.854 6.11 12.329 13.207 9.878 21.622-3.073 10.427-13.792 6.696-21.622 7.28-37.829 3.037-58.316 24.951-58.316 63 0 4.134-0.402 8.341 0.073 12.439 1.244 10.903-3.769 13.025-13.609 11.561-31.756-4.829-62.779-12.439-92.231-25.281-58.17-25.281-106.937-62.56-145.096-114.767zM579.835 689.775c0-7.683 0.292-15.366-0.073-23.049-0.475-10.28 4.463-15.073 14.268-16.463 24.914-3.512 24.914-3.622 24.914-29.707 0-5.305-0.11-10.646 0.073-15.951 0.365-10.573 6.842-14.487 16.427-14.049 7.83 0.365 15.146 2.963 21.293 7.83 20.378 16.134 40.316 32.817 60.988 48.621 10.207 7.793 6.769 11.927-1.756 17.707-32.012 21.731-66.365 38.415-103.499 49.207-32.634 9.512-32.67 9.439-32.634-24.146zM0.073 408.62c6.585 47.45 12.878 94.829 28.756 140.486 38.488 110.633 106.097 198.729 202.132 265.314 22.427 15.548 43.646 13.792 56.377-4.244 12.842-18.183 7.171-38.488-15.256-54.146-113.12-79.060-179.668-186.986-196.863-323.777-28.133-223.9 119.523-438.288 339.252-493.604 121.133-30.512 236.083-13.244 344.264 49.243 5.122 2.963 10.098 6.329 15.512 8.597 17.451 7.244 37.427-0.146 45.548-16.463 8.414-16.865 2.744-36.622-14.816-47.707-36.731-23.159-75.95-41.048-117.328-54.292-5.305-1.683-11.891-1.28-16.573-7.976 34.133-17.305 71.121-30.951 87.036-70.060-168.474 0-336.947 0-505.385 0 11.012 30.402 36.878 45.073 63.256 58.682 13.83 7.134 28.792 12.146 43.683 18.329-4.098 6.842-10.573 6.842-15.768 8.89-145.535 56.816-247.827 157.645-307.167 302.046-21.549 52.463-30.146 107.889-36.731 163.754 0.073 18.952 0.073 37.939 0.073 56.927z" />
<glyph unicode="&#xe630;" glyph-name="graduate" horiz-adv-x="689" d="M71.757 620.66c-0.558-9.812-0.408-19.66-0.074-29.472 0.186-5.166-1.115-8.547-5.463-11.967-13.9-10.927-15.869-30.809-3.456-42.441 6.429-6.021 7.024-11.632 5.314-19.029-0.855-3.643-1.152-7.433-1.673-11.187-3.717-25.606-7.321-51.25-11.261-76.819-0.892-5.724 0.744-7.321 6.541-7.21 16.352 0.371 32.742 0.297 49.094 0.074 4.795-0.074 5.761 1.041 5.017 5.946-4.683 30.809-8.92 61.693-13.453 92.502-0.781 5.426-0.781 9.514 4.199 13.826 12.079 10.443 13.676 29.991 1.784 40.249-8.734 7.581-9.254 15.572-8.845 25.124 0.149 3.791 0.297 7.581 0.037 11.335-0.334 4.832 1.152 5.574 5.574 3.754 17.616-7.321 35.269-14.568 53.145-21.333 4.943-1.896 6.058-4.496 6.021-9.402-0.297-19.92 0.037-39.803-0.223-59.686-0.074-5.389 0.818-7.358 6.503-5.129 11.743 4.609 24.008 7.395 36.384 9.44 36.459 6.095 71.653 3.382 104.321-15.794 12.747-7.47 23.302-17.467 32.927-28.765 1.3 1.375 2.378 2.415 3.382 3.53 20.366 23.785 46.381 37.201 77.079 41.959 32.11 4.98 63.105 0.111 93.468-10.406 4.906-1.71 6.503-1.115 6.429 4.496-0.26 20.143 0.074 40.286-0.223 60.429-0.074 5.129 1.486 7.395 6.318 9.217 35.231 13.305 70.352 26.907 105.51 40.472 9.738 3.754 19.437 7.655 30.401 12.004-4.237 2.452-7.21 4.237-10.183 5.909-101.384 56.675-202.769 113.315-304.079 170.138-5.649 3.196-9.699 3.567-15.646 0.223-84.587-47.57-169.321-94.844-254.018-142.191-19.734-11.038-39.394-22.113-60.763-34.117 15.423-5.724 28.914-11.001 42.665-15.646 5.314-1.821 7.581-4.125 7.247-10.035zM181.838 640.060c53.405 15.089 107.517 25.495 155.496 25.011 67.194 0.111 124.612-11.409 181.176-28.505 4.199-1.263 5.649-3.159 5.351-7.358-0.334-4.496-0.371-9.068 0-13.565 0.446-5.351-1.599-5.611-6.058-4.237-26.87 8.25-54.111 15.089-81.762 20.366-60.987 11.632-121.899 11.669-182.886 0.111-27.65-5.24-54.929-11.93-81.762-20.403-5.649-1.858-6.615-0.408-6.652 5.054-0.149 18.545-0.334 18.582 17.096 23.525zM521.223 470.627c-0.334 23.228-1.263 23.228-24.38 29.36-1.449 0.371-2.973 0.669-4.348 1.189-5.351 2.081-5.835-0.632-5.129-4.906 1.821-11.187 3.196-22.41 2.899-33.782 0.111-11.856-1.003-23.636-2.973-35.306-7.098-41.773-23.933-78.714-54.818-108.446-48.686-46.865-118.443-49.577-169.619-5.909-37.833 32.296-56.527 74.812-62.807 123.423-2.639 20.329-2.378 40.658 1.338 60.875 0.632 3.493 0.558 5.687-4.422 4.311-8.25-2.267-16.427-4.646-24.38-7.768-2.602-1.041-3.902-2.452-4.162-5.463-5.537-62.065 8.028-119.149 46.047-169.098 28.357-37.275 65.187-61.73 112.757-67.268 48.462-5.649 90.049 10.294 124.835 43.111 50.32 47.496 70.167 107.776 69.163 175.676zM449.422 463.826c-0.074 15.609-11.967 26.981-28.059 26.832-15.089-0.111-27.13-12.264-27.092-27.353 0.037-15.423 12.301-27.39 27.947-27.316 15.757 0.111 27.279 11.893 27.205 27.836zM293.926 462.822c0.149 16.13-11.149 27.762-26.944 27.836-16.204 0.074-27.613-11.149-27.65-27.092s11.484-27.576 27.279-27.539c15.46 0 27.168 11.484 27.316 26.795zM304.667 357.685c-4.683 0.037-6.021-1.078-3.456-5.537 9.662-16.835 24.045-26.164 43.557-26.015 19.214 0.111 33.225 9.588 42.776 26.127 2.676 4.646 0.855 5.426-3.605 5.389-13.082-0.149-26.164-0.074-39.245-0.074v0.037c-13.379 0-26.684-0.111-40.026 0.074zM687.757-79.628c-5.351 40.547-7.805 81.352-16.278 121.713-5.909 27.984-13.268 55.115-23.191 81.725-11.224 30.103-29.583 52.848-60.355 66.524-44.82 19.92-93.766 30.624-135.018 61.47-0.855-3.493-1.933-5.463-1.673-7.321 3.493-27.873 6.727-55.783 11.038-83.509 1.784-11.372 4.832-23.414 1.003-33.782-14.234-38.503-30.215-76.336-45.415-114.467-10.48-26.35-21.667-52.439-30.958-79.234-11.224-32.296-24.12-63.811-41.699-95.475-14.717 39.952-29.174 80.015-44.225 119.855-15.275 40.397-31.441 80.424-46.566 120.821-9.96 26.684-20.663 52.96-17.467 83.062 2.602 24.714 1.041 49.912 1.003 74.886 0 5.054 2.081 10.89-3.233 15.015-38.019-26.61-80.349-42.925-124.24-56.601-21.444-6.69-42.554-18.582-54.037-38.093-20.069-34.154-32.445-71.616-39.432-111.084-2.899-16.389-3.828-33.113-7.655-49.168-7.136-29.806-6.95-60.281-9.068-90.421-1.003-14.345-0.149-33.337 14.717-40.51 28.022-13.528 57.679-23.896 88.080-31.218 26.535-6.429 53.479-10.852 80.238-16.13 53.331-10.517 107.071-18.619 161.182-18.434 67.119 0.223 133.123 12.524 198.978 25.94 42.441 8.659 83.285 20.329 123.088 36.867 8.139 3.382 14.383 7.655 16.501 15.794 3.605 13.639 6.615 27.316 4.683 41.773zM354.615 124.070c-3.754 1.821-7.433 3.493-12.004 0.26-8.176-5.798-17.133-10.517-25.458-16.092-6.95-4.646-9.849-11.038-6.876-19.474 1.599-4.571 3.345-9.254 3.865-14.011 5.724-52.067 18.174-103.094 24.714-155.086 1.71-13.528 4.125-27.873 9.96-41.921 2.713 10.072 6.876 19.957 7.953 30.177 4.014 38.242 13.156 75.63 18.211 113.686 2.044 15.349 2.49 31.367 6.801 46.195 9.254 31.813 8.808 34.6-19.548 50.693-2.75 1.561-4.869 4.237-7.618 5.574zM392.522 200.665c-3.605 4.646-10.109 1.71-15.052-0.26-17.876-7.21-36.309-5.017-54.297-2.118-6.503 1.041-12.376 5.984-21.815 1.71 14.308-21.221 28.988-40.323 40.547-61.173 6.615-11.93 9.997-6.132 13.863-0.371 10.964 16.427 20.96 33.448 31.887 49.912 2.676 4.014 8.028 8.213 4.869 12.301z" />
<glyph unicode="&#xe631;" glyph-name="headphone" horiz-adv-x="1159" d="M1073.511 311.51c-4.598 283.873-224.317 513.483-493.977 513.483s-489.514-229.609-494.004-513.595c-49.381-15.709-85.53-65.195-85.53-123.926v-258.384c0-71.263 53.151-129.092 118.844-129.092h94.219v0.753c22.131 1.708 39.71 20.891 39.71 44.688v417.233c0 23.359-17.141 42.426-38.869 44.569 2.422 211.513 165.467 382.871 365.634 382.871 200.178 0 363.197-171.369 365.607-382.898-21.674-2.264-38.574-21.175-38.574-44.541v-417.237c0-23.819 17.517-43.018 39.763-44.692v-0.745h94.192c65.582 0 118.733 57.745 118.733 129.092v258.384c-0.004 58.842-36.232 108.443-85.748 124.037z" />
<glyph unicode="&#xe632;" glyph-name="heart" horiz-adv-x="1221" d="M611.233 653.946c22.028 39.791 49.532 72.738 83.551 100.435 125.799 102.432 320.354 92.446 433.741-23.626 90.036-92.162 112.186-201.6 77.318-323.748-26.993-94.56-78.171-176.040-140.49-250.868-100.809-121.045-223.434-216.499-355.718-300.338-29.329-18.586-59.302-36.187-89.41-53.49-4.426-2.543-12.593-3.241-16.782-0.851-152.197 86.744-294.368 186.833-413.603 316.534-71.462 77.735-130.607 163.593-165.963 264.154-29.293 83.318-34.912 167.227 1.784 249.408 47.749 106.932 131.024 172.452 246.73 188.562 145.503 20.26 258.318-34.959 335.112-161.273 0.689-1.126 1.603-2.118 3.733-4.899z" />
<glyph unicode="&#xe633;" glyph-name="home" horiz-adv-x="1198" d="M1182.393 418.223c-43.906 30.915-87.803 61.838-131.705 92.754 1.409 3.725 1.728 8.247 1.708 12.668-0.151 32.109-0.061 64.223-0.057 96.335 0 32.113 0.090 64.223-0.037 96.335-0.069 17.802-5.403 23.393-22.989 23.475-42.112 0.191-84.225 0.191-126.333 0.004-17.354-0.077-22.749-5.811-22.822-23.711-0.122-28.308 0.016-56.618-0.106-84.926-86.878 61.183-173.764 122.36-260.638 183.555-19.306 13.601-20.879 13.691-39.737 0.411-111.073-78.227-222.144-156.455-333.221-234.665-77.302-54.43-154.629-108.828-231.927-163.263-15.618-11.002-18.365-19.013-9.575-31.836 25.154-36.697 50.543-73.236 76.341-109.477 3.528-4.955 9.894-7.869 15.512-12.155 7.098 4.177 12.995 7.111 18.328 10.864 9.315 6.556 18.621 13.137 27.94 19.693-1.039-3.721-1.598-7.771-1.586-12.371 0.33-150.876 0.191-301.748 0.212-452.624 0.004-23.878 5.309-29.269 28.711-29.278 94.942-0.020 189.887-0.016 284.829 0 24.18 0.004 28.397 4.327 28.397 29.045 0.008 128.555 0.004 257.113 0.004 385.668 0 5.623 0 11.242 0 17.249 77.913 0 154.001 0 231.397 0 0-6.466 0-12.171 0-17.876 0-129.003-0.012-258.005 0.012-387.008 0.004-21.987 4.914-27.060 26.356-27.068 95.386-0.037 190.772-0.041 286.162 0 21.213 0.008 26.755 5.64 26.759 26.913 0.016 153.105-0.094 306.214 0.191 459.319 0.008 3.414-0.346 6.491-0.998 9.347 10.15-7.151 20.292-14.319 30.443-21.47 17.819-12.554 24.787-11.279 37.088 6.417 22.851 32.879 45.711 65.758 68.558 98.641 13.394 19.298 12.253 25.321-7.216 39.032z" />
<glyph unicode="&#xe634;" glyph-name="id-card" horiz-adv-x="1097" d="M517.721 139.171h-26.819c-13.862 0-25.006 11.313-25.006 25.137 0 5.27 2.029 10.151 5.744 13.692 15.548 15.159 28.502 35.415 37.959 57.18 1.859-1.339 4.061-2.375 6.263-2.375 14.99 0 32.567 33.082 32.567 55.667 0 22.631-2.029 40.854-17.061 40.854-1.683 0-3.541-0.346-5.57-0.862-0.993 61.241-16.541 137.679-109.998 137.679-97.518 0-108.789-76.269-109.998-137.337-1.339 0.173-2.676 0.52-4.019 0.52-15.029 0-17.057-18.224-17.057-40.854 0-22.585 17.534-55.667 32.563-55.667 1.859 0 3.541 0.52 5.227 1.556 9.458-21.591 22.285-41.505 37.617-56.36 3.711-3.715 5.744-8.595 5.744-13.692 0-13.819-11.313-25.137-25.134-25.137h-26.477c-57.222 0-103.435-46.209-103.435-103.216v-28.678c0-18.054 14.681-32.736 32.563-32.736h344.98c17.88 0 32.563 14.681 32.563 32.736v28.678c0.004 57.007-46.209 103.216-103.216 103.216zM861.958 422.783h-289.356c8.465-18.57 14.382-41.331 16.887-69.36 6.263-3.846 10.798-9.932 14.681-17.361h257.786c13.3 0 24.098 10.798 24.098 24.14v38.263c0.004 13.523-10.794 24.317-24.098 24.317zM861.958 264.717h-251.87c-6.952-25.826-23.797-52.819-47.075-60.075-0.689-1.339-1.509-2.375-2.202-3.715v-22.931h300.973c13.473 0 24.271 10.798 24.271 24.098v38.48c0.004 13.35-10.794 24.144-24.098 24.144zM861.958 106.782h-196.718c13-20.556 20.598-44.869 20.598-70.826v-15.848h175.947c13.473 0 24.271 10.798 24.271 24.098v38.305c0.004 13.346-10.794 24.271-24.098 24.271zM948.266 686.855h-244.802c-2.129 0-3.873 1.706-3.873 3.873v130.392c0.004 2.129-1.74 3.873-3.869 3.873h-275.655c-2.129 0-3.873-1.744-3.873-3.873v-130.396c0-2.167-1.744-3.873-3.873-3.873h-263.846c-82.001 0.004-148.477-66.472-148.477-148.666v-589.759c0-81.962 66.476-148.435 148.477-148.435h799.793c82.155 0 148.631 66.476 148.631 148.435v589.759c-0.004 82.193-66.48 148.669-148.635 148.669zM486.194 750.93c0 2.129 1.744 3.873 3.873 3.873h135.466c2.167 0 3.873-1.744 3.873-3.873v-134.962c0-2.129-1.706-3.873-3.873-3.873h-135.466c-2.129 0-3.873 1.744-3.873 3.873v134.962zM1026.707-51.573c0-43.206-35.076-78.437-78.244-78.437h-799.985c-43.168 0-78.282 35.23-78.282 78.437v589.759c0 43.36 35.114 78.479 78.282 78.479h263.696c2.129 0 3.873-1.744 3.873-3.873v-67.018c0-2.129 1.744-3.873 3.873-3.873h275.813c2.129 0 3.873 1.744 3.873 3.873v67.018c0 2.129 1.744 3.873 3.873 3.873h244.802c43.36 0 78.441-35.114 78.441-78.479v-589.759z" />
<glyph unicode="&#xe635;" glyph-name="instagram" horiz-adv-x="1021" d="M723.552 458.549c99.173 0 196.955 0 296.074 0 0.246-4.844 0.661-9.231 0.661-13.618 0.035-148.912 0.207-297.828-0.031-446.74-0.176-108.697-90.399-198.163-199.343-198.175-206.984-0.027-413.972-0.027-620.955 0-109.596 0.012-199.507 89.606-199.608 199.166-0.133 148.084-0.027 296.168-0.027 444.252 0 4.508 0 9.013 0 14.587 98.548 0 196.136 0 295.528 0-48.504-74.499-60.783-153.565-31.897-237.214 19.139-55.423 54.157-99.419 103.424-131.363 99.31-64.397 229.599-53.598 315.748 23.448 84.672 75.726 124.879 217.481 40.429 345.657zM126.191 571.962c0 23.249 0 45.192 0 67.136 0 51.43 0 102.861 0 154.292 0 18.404-0.004 18.42 18.537 23.654 3.11 0.875 6.27 1.548 10.884 2.676 0-83.019 0-164.906 0-247.703 14.31 0 27.347 0 41.731 0 0 83.977 0 167.508 0 252 9.719 0 18.143 0 27.815 0 0-83.731 0-167.339 0-251.93 14.244 0 27.284 0 41.699 0 0 83.742 0 167.257 0 252.898 6.485 0 11.645 0 16.81 0 179.177 0 358.357 0.023 537.534-0.008 106.783-0.020 196.323-86.649 198.913-193.448 1.125-46.402 0.187-92.853 0.187-141.017-4.766 0-8.759 0-12.747 0-100.373 0-200.745-0.109-301.118 0.281-5.852 0.023-13.087 2.579-17.33 6.496-103.798 95.943-256.149 95.411-360.201-1.433-2.969-2.766-7.732-5.11-11.661-5.122-103.275-0.273-206.551-0.215-309.83-0.172-1.977 0-3.954 0.496-7.102 0.914 0 15.255-0.078 30.092 0.016 44.926 0.226 35.66-1.5 71.472 1.254 106.931 4.57 58.893 32.737 105.908 79.437 141.877 0.856 0.661 2.125 0.782 4.481 1.594 0-71.827 0-142.908 0-214.844 13.786 0 26.425 0 40.692 0zM927.672 653.509c0 17.814 0.187 35.632-0.051 53.442-0.265 19.935-12.158 33.268-32.030 33.667-36.027 0.723-72.088 0.707-108.12 0.023-20.568-0.39-32.316-13.684-32.382-34.468-0.113-36.042-0.172-72.084 0.027-108.128 0.109-19.791 12.959-32.796 32.468-32.901 35.628-0.187 71.257-0.172 106.884-0.008 20.209 0.094 32.964 13.126 33.167 33.687 0.183 18.225 0.039 36.457 0.035 54.684zM510.051 106.907c-111.815-0.031-201.933 89.5-202.151 200.831-0.215 110.748 90.57 201.167 201.952 201.131 111.53-0.035 201.472-90.2 201.065-201.562-0.406-111.307-89.681-200.37-200.866-200.402zM658.467 307.465c0.020 82.555-65.779 148.568-148.112 148.588-81.793 0.023-148.135-65.904-148.19-147.268-0.055-82.559 65.705-149.174 147.498-149.416 82.027-0.242 148.787 66.202 148.802 148.096z" />
<glyph unicode="&#xe636;" glyph-name="interface" horiz-adv-x="1216" d="M1215.961 755.805c0 10.321-1.529 21.407-5.734 30.581-12.614 28.669-37.079 38.608-66.895 38.608h-1065.352c-53.134 0-77.599-24.083-77.599-76.834v-452.211c0-141.435 0-282.87-0.382-424.306 0-20.26 4.969-38.225 19.495-52.752 15.672-15.29 34.785-18.73 55.81-18.73h740.051c109.708 0 219.799-0.382 329.506 0 43.96 0 71.482 26.376 71.482 69.189 0 295.486 0 590.97-0.382 886.456zM335.622 745.101c21.788 0 32.492-10.703 32.874-32.109 0-21.788-10.321-32.109-31.727-32.492-22.553 0-32.109 9.174-32.109 31.727s9.556 32.492 30.963 32.874zM224.385 745.101c21.788 0 31.346-9.939 31.346-32.492 0-22.935-8.792-32.109-31.346-32.109-21.788 0-32.109 10.321-32.109 32.109 0 21.407 10.703 32.109 32.109 32.492zM111.619 744.719c21.407 0.382 32.874-10.321 33.256-31.727s-10.703-32.109-32.109-32.492c-22.171 0-32.109 9.556-32.492 31.346s10.321 32.874 31.346 32.874zM1184.617-124.153c0-32.492-10.703-43.195-42.813-43.195h-1068.41c-30.198 0-41.284 11.086-41.284 41.666v725.526h1152.506v-723.996z" />
<glyph unicode="&#xe637;" glyph-name="joomla" d="M306.286 426.599l244.222 238.231c0 0 86.085 88.078 208.202 36.028 0 0 7.993 114.112 132.111 124.122 0 0 134.132-2.001 134.132-136.133 0 0 6.004-112.099-118.115-134.12 0 0 36.032-144.142-64.061-230.223l-94.078 94.093c0 0 68.050 58.057 4.002 130.126 0 0-62.060 54.051-130.126-10.010l-214.201-216.21-102.090 104.095zM627.24 519.027l237.958-244.504c0 0 87.971-86.183 35.791-208.245 0 0 114.096-8.119 123.964-132.257 0 0-2.143-134.128-136.275-133.986 0 0-112.123-5.877-133.986 118.257 0 0-144.181-35.862-230.144 64.333l94.184 93.975c0 0 57.986-68.138 130.126-4.149 0 0 54.11 62.004-9.852 130.142l-215.973 214.45 104.206 101.984zM719.012 197.722l-244.508-237.974c0 0-86.176-87.971-208.229-35.779 0 0-8.131-114.112-132.249-123.976 0 0-134.128 2.143-133.982 136.275 0 0-5.885 112.123 118.257 134.002 0 0-35.87 144.181 64.325 230.144l93.967-94.184c0 0-68.13-57.986-4.141-130.126 0 0 61.996-54.122 130.126 9.852l214.427 215.965 102.007-104.198zM396.915 105.59l-237.622 244.843c0 0-87.865 86.306-35.499 208.297 0 0-114.096 8.277-123.79 132.423 0 0 2.325 134.128 136.453 133.8 0 0 112.115 5.727 133.824-118.444 0 0 144.233 35.669 230.061-64.649l-94.319-93.841c0 0-57.879 68.217-130.106 4.318 0 0-54.217-61.924 9.673-130.153l215.673-214.736-104.348-101.86z" />
<glyph unicode="&#xe638;" glyph-name="law" horiz-adv-x="1156" d="M1128.888 185.332c-6.86-0.763-11.597 0.626-15.289 7.828-48.042 93.728-96.467 187.261-144.771 280.855-1.077 2.090-1.856 4.333-3.006 7.062 20.736 3.721 40.064 10.092 58.727 18.408 25.095 11.185 35.763 37.236 25.502 61.813-10.386 24.876-37.624 36.562-62.911 24.961-43.576-19.99-85.803-20.103-127.514 4.471-2.752 1.623-5.763 2.793-8.623 4.233-63.335 31.833-131.032 46.258-201.296 50.455-13.219 0.791-26.491 1.558-39.778 2.328 34.843 12.969 59.796 46.254 59.796 85.617-0.004 50.604-41.029 91.629-91.633 91.629s-91.629-41.025-91.629-91.629c0-39.257 24.808-72.483 59.506-85.529-10.495-0.682-21.003-1.392-31.462-1.876-79.992-3.713-156.118-21.822-227.088-59.502-38.415-20.402-76.619-19.236-115.489-1.468-26.39 12.061-53.865 2.332-65.204-22.197-11.31-24.457-0.549-51.133 25.824-63.899 18.138-8.785 37.34-14.224 58.255-17.867-2.469-4.834-4.609-9.043-6.771-13.235-46.278-89.729-92.707-179.376-138.622-269.291-4.975-9.745-10.374-15.329-21.713-13.187-10.863 2.050-18.481-2.676-23.702-11.968 0-2.409 0-4.818 0-7.227 18.565-65.494 67.443-99.312 127.929-118.713 81.311-26.086 161.933-22.56 240.112 13.263 29.207 13.384 54.329 32.487 73.144 59.018 9.603 13.542 16.52 28.319 19.562 44.766 2.292 12.384-4.067 22.085-16.145 20.45-17.359-2.344-23.932 6.311-30.985 20.172-44.321 87.082-89.612 173.671-134.574 260.425-7.606 14.675-7.557 14.341 8.461 16.528 33.911 4.641 66.261 15.027 98.049 27.378 32.455 12.605 64.731 25.716 99.893 29.235 15.648 1.566 15.608 2.010 15.608-14.079 0.004-185.784-0.048-371.565 0.161-557.344 0.008-8.708-0.618-12.706-11.395-13.966-34.165-3.999-61.926-32.914-65.296-67.205-0.864-8.773-4.37-9.188-11.089-9.107-21.668 0.254-43.333 0.089-65.001 0.089-45.738-0.004-77.611-31.215-78.656-77.034 205.544 0 411.088 0 616.632 0-1.049 42.551-34.573 75.751-78.264 76.877-22.060 0.569-44.148 0.322-66.216 0.048-6.549-0.085-9.41 0.795-10.225 8.745-3.632 35.505-32.135 64.118-67.37 67.991-7.005 0.767-9.39 2.106-9.377 9.607 0.218 189.029 0.238 378.057-0.036 567.086-0.012 9.047 3.761 9.51 10.721 8.914 30.276-2.587 58.739-11.843 86.799-22.826 40.29-15.777 80.69-31.199 124.345-35.137 11.669-1.053 4.609-7.392 2.571-11.347-32.487-63.021-65.143-125.948-97.754-188.899-15.108-29.161-30.381-58.239-45.145-87.57-3.163-6.287-6.949-9.115-13.901-8.215-3.554 0.46-7.219 0.198-10.827 0.052-12.42-0.504-18.755-8.457-16.306-20.756 6.795-34.125 27.075-59.405 53.768-80.040 36.76-28.419 79.301-43.317 124.721-49.729 64.868-9.152 127.993-2.676 187.773 25.796 32.451 15.454 60.051 36.861 79.132 68.076 7.15 11.697 10.487 24.876 15.374 37.458 0 2.409 0 4.818 0 7.227-5.815 11.488-15.919 13.247-27.306 11.985zM346.155 186.268c-76.982 0-152.475 0-229.823 0 38.333 71.869 75.961 142.419 114.883 215.402 38.761-72.644 76.49-143.347 114.94-215.402zM809.922 186.018c38.369 71.942 76.098 142.689 115.020 215.669 38.894-72.918 76.627-143.666 115.032-215.669-77.235 0-152.716 0-230.054 0z" />
<glyph unicode="&#xe639;" glyph-name="leaf" horiz-adv-x="1505" d="M1489.518 790.417c-38.017-4.253-75.944-9.703-114.068-12.463-121.474-8.796-241.072 8.425-360.565 27.236-88.026 13.86-176.604 22.177-265.828 19.202-70.488-2.352-139.919-12.103-204.913-41.228-84.782-37.991-155.512-95.13-214.654-166.122-91.285-109.569-142.947-234.082-135.311-379.020 1.53-29.007 6.702-67.985 11.233-100.606 54.949 48.493 114.734 90.495 175.412 119.057 158.83 74.752 325.463 127.681 493.83 175.681 3.211 0.913 11.142 2.621 14.509 2.98 0.564-1.288 20.716 4.591 21.28 3.302-345.686-128.54-637.303-303.602-910.444-550.308 32.734-18.145 29.877-66.595 61.381-85.088 9.236-5.423 13.751-3.184 20.491 3.426 33.125 32.503 65.757 65.634 100.569 96.268 34.71 30.543 71.804 58.379 108.747 88.122 8.076-8.473 13.569-14.23 19.052-19.992 43.822-46.035 95.764-80.412 154.503-103.823 83.139-33.136 169.79-45.336 258.777-35.467 166.794 18.493 308.543 84.229 414.036 219.615 91.081 116.888 161.762 245.616 222.37 379.939 41.675 92.359 78.725 186.817 117.172 280.61 10.583 25.817 18.756 52.623 28.706 80.878-6.981-0.945-11.62-1.67-16.286-2.196z" />
</font>
</defs>
</svg>
